  0
SECTION
  2
HEADER
  9
$ACADVER
  1
AC1015
  9
$ACADMAINTVER
 70
     6
  9
$DWGCODEPAGE
  3
ANSI_1252
  9
$INSBASE
 10
0.0
 20
0.0
 30
0.0
  9
$EXTMIN
 10
0.0
 20
0.0
 30
0.0
  9
$EXTMAX
 10
841.0
 20
594.0
 30
0.0
  9
$LIMMIN
 10
0.0
 20
0.0
  9
$LIMMAX
 10
841.0
 20
594.0
  9
$ORTHOMODE
 70
     0
  9
$REGENMODE
 70
     1
  9
$FILLMODE
 70
     1
  9
$QTEXTMODE
 70
     0
  9
$MIRRTEXT
 70
     1
  9
$LTSCALE
 40
1.0
  9
$ATTMODE
 70
     1
  9
$TEXTSIZE
 40
2.5
  9
$TRACEWID
 40
1.0
  9
$TEXTSTYLE
  7
Standard
  9
$CLAYER
  8
0
  9
$CELTYPE
  6
ByLayer
  9
$CECOLOR
 62
   256
  9
$CELTSCALE
 40
1.0
  9
$DISPSILH
 70
     0
  9
$DIMSCALE
 40
1.0
  9
$DIMASZ
 40
2.5
  9
$DIMEXO
 40
1.0
  9
$DIMDLI
 40
3.75
  9
$DIMRND
 40
0.0
  9
$DIMDLE
 40
0.0
  9
$DIMEXE
 40
1.0
  9
$DIMTP
 40
0.0
  9
$DIMTM
 40
0.0
  9
$DIMTXT
 40
2.5
  9
$DIMCEN
 40
2.5
  9
$DIMTSZ
 40
0.0
  9
$DIMTOL
 70
     0
  9
$DIMLIM
 70
     0
  9
$DIMTIH
 70
     1
  9
$DIMTOH
 70
     1
  9
$DIMSE1
 70
     0
  9
$DIMSE2
 70
     0
  9
$DIMTAD
 70
     1
  9
$DIMZIN
 70
     0
  9
$DIMBLK
  1

  9
$DIMASO
 70
     1
  9
$DIMSHO
 70
     1
  9
$DIMPOST
  1

  9
$DIMAPOST
  1

  9
$DIMALT
 70
     0
  9
$DIMALTD
 70
     3
  9
$DIMALTF
 40
0.0393700787
  9
$DIMLFAC
 40
1.0
  9
$DIMTOFL
 70
     1
  9
$DIMTVP
 40
0.0
  9
$DIMTIX
 70
     0
  9
$DIMSOXD
 70
     0
  9
$DIMSAH
 70
     0
  9
$DIMBLK1
  1

  9
$DIMBLK2
  1

  9
$DIMSTYLE
  2
ISO-25
  9
$DIMCLRD
 70
     0
  9
$DIMCLRE
 70
     0
  9
$DIMCLRT
 70
     0
  9
$DIMTFAC
 40
1.0
  9
$DIMGAP
 40
1.524
  9
$DIMJUST
 70
     0
  9
$DIMSD1
 70
     0
  9
$DIMSD2
 70
     0
  9
$DIMTOLJ
 70
     0
  9
$DIMTZIN
 70
     0
  9
$DIMALTZ
 70
     0
  9
$DIMALTTZ
 70
     0
  9
$DIMUPT
 70
     0
  9
$DIMDEC
 70
     2
  9
$DIMTDEC
 70
     2
  9
$DIMALTU
 70
     2
  9
$DIMALTTD
 70
     3
  9
$DIMTXSTY
  7
Standard
  9
$DIMAUNIT
 70
     0
  9
$DIMADEC
 70
     2
  9
$DIMALTRND
 40
0.0
  9
$DIMAZIN
 70
     0
  9
$DIMDSEP
 70
    44
  9
$DIMATFIT
 70
     3
  9
$DIMFRAC
 70
     0
  9
$DIMLDRBLK
  1

  9
$DIMLUNIT
 70
     2
  9
$DIMLWD
 70
    -2
  9
$DIMLWE
 70
    -2
  9
$DIMTMOVE
 70
     0
  9
$LUNITS
 70
     2
  9
$LUPREC
 70
     2
  9
$SKETCHINC
 40
1.0
  9
$FILLETRAD
 40
10.0
  9
$AUNITS
 70
     0
  9
$AUPREC
 70
     2
  9
$MENU
  1
.
  9
$ELEVATION
 40
0.0
  9
$PELEVATION
 40
0.0
  9
$THICKNESS
 40
0.0
  9
$LIMCHECK
 70
     0
  9
$CHAMFERA
 40
10.0
  9
$CHAMFERB
 40
10.0
  9
$CHAMFERC
 40
20.0
  9
$CHAMFERD
 40
0.0
  9
$SKPOLY
 70
     0
  9
$TDCREATE
 40
2457457.425924873
  9
$TDUCREATE
 40
2457457.384258206
  9
$TDUPDATE
 40
2457457.425926319
  9
$TDUUPDATE
 40
2457457.384259653
  9
$TDINDWG
 40
0.0000000116
  9
$TDUSRTIMER
 40
0.0000000116
  9
$USRTIMER
 70
     1
  9
$ANGBASE
 50
0.0
  9
$ANGDIR
 70
     0
  9
$PDMODE
 70
     0
  9
$PDSIZE
 40
-1.0
  9
$PLINEWID
 40
0.0
  9
$SPLFRAME
 70
     0
  9
$SPLINETYPE
 70
     6
  9
$SPLINESEGS
 70
     8
  9
$HANDSEED
  5
399
  9
$SURFTAB1
 70
     6
  9
$SURFTAB2
 70
     6
  9
$SURFTYPE
 70
     6
  9
$SURFU
 70
     6
  9
$SURFV
 70
     6
  9
$UCSBASE
  2

  9
$UCSNAME
  2

  9
$UCSORG
 10
0.0
 20
0.0
 30
0.0
  9
$UCSXDIR
 10
1.0
 20
0.0
 30
0.0
  9
$UCSYDIR
 10
0.0
 20
1.0
 30
0.0
  9
$UCSORTHOREF
  2

  9
$UCSORTHOVIEW
 70
     0
  9
$UCSORGTOP
 10
0.0
 20
0.0
 30
0.0
  9
$UCSORGBOTTOM
 10
0.0
 20
0.0
 30
0.0
  9
$UCSORGLEFT
 10
0.0
 20
0.0
 30
0.0
  9
$UCSORGRIGHT
 10
0.0
 20
0.0
 30
0.0
  9
$UCSORGFRONT
 10
0.0
 20
0.0
 30
0.0
  9
$UCSORGBACK
 10
0.0
 20
0.0
 30
0.0
  9
$PUCSBASE
  2

  9
$PUCSNAME
  2

  9
$PUCSORG
 10
0.0
 20
0.0
 30
0.0
  9
$PUCSXDIR
 10
1.0
 20
0.0
 30
0.0
  9
$PUCSYDIR
 10
0.0
 20
1.0
 30
0.0
  9
$PUCSORTHOREF
  2

  9
$PUCSORTHOVIEW
 70
     0
  9
$PUCSORGTOP
 10
0.0
 20
0.0
 30
0.0
  9
$PUCSORGBOTTOM
 10
0.0
 20
0.0
 30
0.0
  9
$PUCSORGLEFT
 10
0.0
 20
0.0
 30
0.0
  9
$PUCSORGRIGHT
 10
0.0
 20
0.0
 30
0.0
  9
$PUCSORGFRONT
 10
0.0
 20
0.0
 30
0.0
  9
$PUCSORGBACK
 10
0.0
 20
0.0
 30
0.0
  9
$USERI1
 70
     0
  9
$USERI2
 70
     0
  9
$USERI3
 70
     0
  9
$USERI4
 70
     0
  9
$USERI5
 70
     0
  9
$USERR1
 40
0.0
  9
$USERR2
 40
0.0
  9
$USERR3
 40
0.0
  9
$USERR4
 40
0.0
  9
$USERR5
 40
0.0
  9
$WORLDVIEW
 70
     1
  9
$SHADEDGE
 70
     3
  9
$SHADEDIF
 70
    70
  9
$TILEMODE
 70
     1
  9
$MAXACTVP
 70
    64
  9
$PINSBASE
 10
0.0
 20
0.0
 30
0.0
  9
$PLIMCHECK
 70
     0
  9
$PEXTMIN
 10
1.0000000000E+20
 20
1.0000000000E+20
 30
1.0000000000E+20
  9
$PEXTMAX
 10
-1.0000000000E+20
 20
-1.0000000000E+20
 30
-1.0000000000E+20
  9
$PLIMMIN
 10
0.0
 20
0.0
  9
$PLIMMAX
 10
420.0
 20
297.0
  9
$UNITMODE
 70
     0
  9
$VISRETAIN
 70
     1
  9
$PLINEGEN
 70
     0
  9
$PSLTSCALE
 70
     1
  9
$TREEDEPTH
 70
  3020
  9
$CMLSTYLE
  2
Standard
  9
$CMLJUST
 70
     0
  9
$CMLSCALE
 40
20.0
  9
$PROXYGRAPHICS
 70
     1
  9
$MEASUREMENT
 70
     1
  9
$CELWEIGHT
370
    -1
  9
$ENDCAPS
280
     0
  9
$JOINSTYLE
280
     0
  9
$LWDISPLAY
290
     1
  9
$INSUNITS
 70
     4
  9
$HYPERLINKBASE
  1

  9
$STYLESHEET
  1

  9
$XEDIT
290
     1
  9
$CEPSNTYPE
380
     0
  9
$PSTYLEMODE
290
     1
  9
$FINGERPRINTGUID
  2
{1ED03904-3CFE-43D5-B4A7-E14E11A04181}
  9
$VERSIONGUID
  2
{FAEB1C32-E019-11D5-929B-00C0DF256EC4}
  9
$EXTNAMES
290
     1
  9
$PSVPSCALE
 40
0.0
  9
$OLESTARTUP
290
     0
  0
ENDSEC
  0
SECTION
  2
CLASSES
  0
CLASS
  1
ACDBDICTIONARYWDFLT
  2
AcDbDictionaryWithDefault
  3
ObjectDBX Classes
 90
        0
280
     0
281
     0
  0
CLASS
  1
VISUALSTYLE
  2
AcDbVisualStyle
  3
ObjectDBX Classes
 90
     4095
280
     0
281
     0
  0
CLASS
  1
MATERIAL
  2
AcDbMaterial
  3
ObjectDBX Classes
 90
     1153
280
     0
281
     0
  0
CLASS
  1
ACDBPLACEHOLDER
  2
AcDbPlaceHolder
  3
ObjectDBX Classes
 90
        0
280
     0
281
     0
  0
CLASS
  1
LAYOUT
  2
AcDbLayout
  3
ObjectDBX Classes
 90
        0
280
     0
281
     0
  0
ENDSEC
  0
SECTION
  2
TABLES
  0
TABLE
  2
VPORT
  5
8
330
0
100
AcDbSymbolTable
 70
     1
  0
VPORT
  5
29
330
8
100
AcDbSymbolTableRecord
100
AcDbViewportTableRecord
  2
*Active
 70
     0
 10
0.0
 20
0.0
 11
1.0
 21
1.0
 12
420.5
 22
297.0
 13
0.0
 23
0.0
 14
10.0
 24
10.0
 15
10.0
 25
10.0
 16
0.0
 26
0.0
 36
1.0
 17
0.0
 27
0.0
 37
0.0
 40
594.0
 41
1.4158249158
 42
50.0
 43
0.0
 44
0.0
 50
0.0
 51
0.0
 71
     0
 72
  2000
 73
     1
 74
     3
 75
     0
 76
     0
 77
     0
 78
     0
281
     0
 65
     1
110
0.0
120
0.0
130
0.0
111
1.0
121
0.0
131
0.0
112
0.0
122
1.0
132
0.0
 79
     0
146
0.0
  0
ENDTAB
  0
TABLE
  2
LTYPE
  5
5
330
0
100
AcDbSymbolTable
 70
     6
  0
LTYPE
  5
14
330
5
100
AcDbSymbolTableRecord
100
AcDbLinetypeTableRecord
  2
ByBlock
 70
     0
  3

 72
    65
 73
     0
 40
0.0
  0
LTYPE
  5
15
330
5
100
AcDbSymbolTableRecord
100
AcDbLinetypeTableRecord
  2
ByLayer
 70
     0
  3

 72
    65
 73
     0
 40
0.0
  0
LTYPE
  5
16
330
5
100
AcDbSymbolTableRecord
100
AcDbLinetypeTableRecord
  2
Continuous
 70
     0
  3
Solid line
 72
    65
 73
     0
 40
0.0
  0
LTYPE
  5
3F
330
5
100
AcDbSymbolTableRecord
100
AcDbLinetypeTableRecord
  2
HIDDEN
 70
     0
  3
Hidden __ __ __ __ __ __ __ __ __ __ __ __ __ __
 72
    65
 73
     2
 40
1.905
 49
1.27
 74
     0
 49
-0.635
 74
     0
  0
LTYPE
  5
40
330
5
100
AcDbSymbolTableRecord
100
AcDbLinetypeTableRecord
  2
PHANTOM
 70
     0
  3
Phantom ______  __  __  ______  __  __  ______
 72
    65
 73
     6
 40
12.7
 49
6.35
 74
     0
 49
-1.27
 74
     0
 49
1.27
 74
     0
 49
-1.27
 74
     0
 49
1.27
 74
     0
 49
-1.27
 74
     0
  0
LTYPE
  5
41
330
5
100
AcDbSymbolTableRecord
100
AcDbLinetypeTableRecord
  2
CENTER
 70
     0
  3
Center ____ _ ____ _ ____ _ ____ _ ____ _ ____
 72
    65
 73
     4
 40
10.16
 49
6.35
 74
     0
 49
-1.27
 74
     0
 49
1.27
 74
     0
 49
-1.27
 74
     0
  0
LTYPE
  5
42
330
5
100
AcDbSymbolTableRecord
100
AcDbLinetypeTableRecord
  2
CENTERX2
 70
     0
  3
Center (2x) ________  __  ________  __  _____
 72
    65
 73
     4
 40
20.32
 49
12.7
 74
     0
 49
-2.54
 74
     0
 49
2.54
 74
     0
 49
-2.54
 74
     0
  0
LTYPE
  5
43
330
5
100
AcDbSymbolTableRecord
100
AcDbLinetypeTableRecord
  2
DOT2
 70
     0
  3
Dot (.5x) ........................................
 72
    65
 73
     2
 40
0.635
 49
0.0
 74
     0
 49
-0.635
 74
     0
  0
ENDTAB
  0
TABLE
  2
LAYER
  5
2
330
0
100
AcDbSymbolTable
 70
     5
  0
LAYER
  5
10
330
2
100
AcDbSymbolTableRecord
100
AcDbLayerTableRecord
  2
0
 70
     0
 62
     7
  6
Continuous
370
    -3
390
F
  0
LAYER
  5
44
330
2
100
AcDbSymbolTableRecord
100
AcDbLayerTableRecord
  2
FORMAT
 70
     0
 62
     7
  6
Continuous
370
    -3
390
F
  0
LAYER
  5
45
330
2
100
AcDbSymbolTableRecord
100
AcDbLayerTableRecord
  2
PROTOTYPE
 70
     0
 62
     7
  6
Continuous
370
    -3
390
F
  0
LAYER
  5
46
330
2
100
AcDbSymbolTableRecord
100
AcDbLayerTableRecord
  2
TECH_TEXT
 70
     0
 62
     7
  6
Continuous
370
    -3
390
F
  0
LAYER
  5
47
330
2
100
AcDbSymbolTableRecord
100
AcDbLayerTableRecord
  2
TOOLING_TABLE
 70
     0
 62
    -7
  6
Continuous
370
    -3
390
F
  0
ENDTAB
  0
TABLE
  2
STYLE
  5
3
330
0
100
AcDbSymbolTable
 70
     2
  0
STYLE
  5
11
330
3
100
AcDbSymbolTableRecord
100
AcDbTextStyleTableRecord
  2
Standard
 70
     0
 40
0.0
 41
1.0
 50
0.0
 71
     0
 42
2.5
  3
txt
  4

  0
STYLE
  5
52
330
3
100
AcDbSymbolTableRecord
100
AcDbTextStyleTableRecord
  2
SLDTEXTSTYLE0
 70
     0
 40
0.0
 41
0.605
 50
0.0
 71
     0
 42
0.2
  3
TXT
  4

  0
ENDTAB
  0
TABLE
  2
VIEW
  5
6
330
0
100
AcDbSymbolTable
 70
     0
  0
ENDTAB
  0
TABLE
  2
UCS
  5
7
330
0
100
AcDbSymbolTable
 70
     0
  0
ENDTAB
  0
TABLE
  2
APPID
  5
9
330
0
100
AcDbSymbolTable
 70
     1
  0
APPID
  5
12
330
9
100
AcDbSymbolTableRecord
100
AcDbRegAppTableRecord
  2
ACAD
 70
     0
  0
ENDTAB
  0
TABLE
  2
DIMSTYLE
  5
A
330
0
100
AcDbSymbolTable
 70
     2
100
AcDbDimStyleTable
  0
DIMSTYLE
105
27
330
A
100
AcDbSymbolTableRecord
100
AcDbDimStyleTableRecord
  2
ISO-25
 70
     0
 41
2.5
 42
0.625
 43
3.75
 44
1.25
 73
     0
 74
     0
 77
     1
 78
     8
140
2.5
141
2.5
143
0.0393700787
147
0.625
171
     3
172
     1
178
     0
271
     2
272
     2
274
     3
278
    44
283
     0
284
     8
340
11
  0
DIMSTYLE
105
FA
102
{ACAD_REACTORS
330
F9
102
}
330
A
100
AcDbSymbolTableRecord
100
AcDbDimStyleTableRecord
  2
SLDDIMSTYLE0
 70
     0
 41
2.5
 44
0.0
 45
0.000000001
 73
     0
 74
     0
 77
     1
 78
    12
 79
     3
140
2.5
147
0.625
173
     1
178
     0
271
     2
272
     2
276
     2
284
    12
340
52
  0
ENDTAB
  0
TABLE
  2
BLOCK_RECORD
  5
1
330
0
100
AcDbSymbolTable
 70
    10
  0
BLOCK_RECORD
  5
1F
330
1
100
AcDbSymbolTableRecord
100
AcDbBlockTableRecord
  2
*Model_Space
340
22
  0
BLOCK_RECORD
  5
1B
330
1
100
AcDbSymbolTableRecord
100
AcDbBlockTableRecord
  2
*Paper_Space
340
1E
  0
BLOCK_RECORD
  5
23
330
1
100
AcDbSymbolTableRecord
100
AcDbBlockTableRecord
  2
*Paper_Space0
340
26
  0
BLOCK_RECORD
  5
FB
330
1
100
AcDbSymbolTableRecord
100
AcDbBlockTableRecord
  2
_D
340
0
  0
BLOCK_RECORD
  5
104
330
1
100
AcDbSymbolTableRecord
100
AcDbBlockTableRecord
  2
SW_CENTERMARKSYMBOL_0
340
0
102
{BLKREFS
331
163
102
}
  0
BLOCK_RECORD
  5
1EF
330
1
100
AcDbSymbolTableRecord
100
AcDbBlockTableRecord
  2
SW_CENTERMARKSYMBOL_1
340
0
102
{BLKREFS
331
1FA
102
}
  0
BLOCK_RECORD
  5
351
330
1
100
AcDbSymbolTableRecord
100
AcDbBlockTableRecord
  2
SW_CENTERMARKSYMBOL_2
340
0
102
{BLKREFS
331
35C
102
}
  0
BLOCK_RECORD
  5
35D
330
1
100
AcDbSymbolTableRecord
100
AcDbBlockTableRecord
  2
SW_CENTERMARKSYMBOL_3
340
0
102
{BLKREFS
331
368
102
}
  0
BLOCK_RECORD
  5
369
330
1
100
AcDbSymbolTableRecord
100
AcDbBlockTableRecord
  2
SW_CENTERMARKSYMBOL_4
340
0
102
{BLKREFS
331
374
102
}
  0
BLOCK_RECORD
  5
375
330
1
100
AcDbSymbolTableRecord
100
AcDbBlockTableRecord
  2
SW_CENTERMARKSYMBOL_5
340
0
102
{BLKREFS
331
380
102
}
  0
BLOCK_RECORD
  5
381
330
1
100
AcDbSymbolTableRecord
100
AcDbBlockTableRecord
  2
SW_CENTERMARKSYMBOL_6
340
0
102
{BLKREFS
331
38C
102
}
  0
BLOCK_RECORD
  5
38D
330
1
100
AcDbSymbolTableRecord
100
AcDbBlockTableRecord
  2
SW_CENTERMARKSYMBOL_7
340
0
102
{BLKREFS
331
398
102
}
  0
ENDTAB
  0
ENDSEC
  0
SECTION
  2
BLOCKS
  0
BLOCK
  5
20
330
1F
100
AcDbEntity
  8
0
100
AcDbBlockBegin
  2
*Model_Space
 70
     0
 10
0.0
 20
0.0
 30
0.0
  3
*Model_Space
  1

  0
ENDBLK
  5
21
330
1F
100
AcDbEntity
  8
0
100
AcDbBlockEnd
  0
BLOCK
  5
1C
330
1B
100
AcDbEntity
 67
     1
  8
0
100
AcDbBlockBegin
  2
*Paper_Space
 70
     0
 10
0.0
 20
0.0
 30
0.0
  3
*Paper_Space
  1

  0
ENDBLK
  5
1D
330
1B
100
AcDbEntity
 67
     1
  8
0
100
AcDbBlockEnd
  0
BLOCK
  5
24
330
23
100
AcDbEntity
  8
0
100
AcDbBlockBegin
  2
*Paper_Space0
 70
     0
 10
0.0
 20
0.0
 30
0.0
  3
*Paper_Space0
  1

  0
ENDBLK
  5
25
330
23
100
AcDbEntity
  8
0
100
AcDbBlockEnd
  0
BLOCK
  5
FC
330
FB
100
AcDbEntity
  8
0
100
AcDbBlockBegin
  2
_D
 70
     0
 10
0.0
 20
0.0
 30
0.0
  3
_D
  1

  0
SOLID
  5
FE
330
FB
100
AcDbEntity
  8
FORMAT
 62
     7
100
AcDbTrace
 10
519.24705884
 20
424.9437455055
 30
0.0
 11
519.55705884
 21
427.4437455055
 31
0.0
 12
518.93705884
 22
427.4437455055
 32
0.0
 13
518.93705884
 23
427.4437455055
 33
0.0
  0
SOLID
  5
FF
330
FB
100
AcDbEntity
  8
FORMAT
 62
     7
100
AcDbTrace
 10
519.24705884
 20
606.9437455055
 30
0.0
 11
518.93705884
 21
604.4437455055
 31
0.0
 12
519.55705884
 22
604.4437455055
 32
0.0
 13
519.55705884
 23
604.4437455055
 33
0.0
  0
LINE
  5
100
330
FB
100
AcDbEntity
  8
FORMAT
 62
     7
100
AcDbLine
 10
481.6830364347
 20
424.9437455055
 30
0.0
 11
520.24705884
 21
424.9437455055
 31
0.0
  0
LINE
  5
101
330
FB
100
AcDbEntity
  8
FORMAT
 62
     7
100
AcDbLine
 10
385.9259596562
 20
606.9437455055
 30
0.0
 11
520.24705884
 21
606.9437455055
 31
0.0
  0
LINE
  5
102
330
FB
100
AcDbEntity
  8
FORMAT
 62
     7
100
AcDbLine
 10
519.24705884
 20
424.9437455055
 30
0.0
 11
519.24705884
 21
606.9437455055
 31
0.0
  0
MTEXT
  5
103
330
FB
100
AcDbEntity
  8
FORMAT
 62
     7
100
AcDbMText
 10
516.0243894906
 20
543.5919682869
 30
0.1
 40
2.5
 41
0.0
 71
     1
 72
     1
  1
182
  7
SLDTEXTSTYLE0
 11
6.123233995736766E-17
 21
1.0
 31
0.0
 73
     1
 44
1.0
  0
ENDBLK
  5
FD
330
FB
100
AcDbEntity
  8
0
100
AcDbBlockEnd
  0
BLOCK
  5
105
330
104
100
AcDbEntity
  8
0
100
AcDbBlockBegin
  2
SW_CENTERMARKSYMBOL_0
 70
     0
 10
0.0
 20
0.0
 30
0.0
  3
SW_CENTERMARKSYMBOL_0
  1

  0
ARC
  5
107
330
104
100
AcDbEntity
  8
FORMAT
 62
     0
100
AcDbCircle
 10
-104.298250225
 20
-104.298250225
 30
0.0
 40
147.5000000000001
100
AcDbArc
 50
45.0
 51
45.971114907
  0
ARC
  5
108
330
104
100
AcDbEntity
  8
FORMAT
 62
     0
100
AcDbCircle
 10
-104.298250225
 20
-104.298250225
 30
0.0
 40
147.5000000000001
100
AcDbArc
 50
44.028885093
 51
45.0
  0
ARC
  5
109
330
104
100
AcDbEntity
  8
FORMAT
 62
     0
100
AcDbCircle
 10
-104.298250225
 20
-104.298250225
 30
0.0
 40
147.5000000000001
100
AcDbArc
 50
15.0
 51
15.971114907
  0
ARC
  5
10A
330
104
100
AcDbEntity
  8
FORMAT
 62
     0
100
AcDbCircle
 10
-104.298250225
 20
-104.298250225
 30
0.0
 40
147.5000000000001
100
AcDbArc
 50
14.028885093
 51
15.0
  0
ARC
  5
10B
330
104
100
AcDbEntity
  8
FORMAT
 62
     0
100
AcDbCircle
 10
-104.298250225
 20
-104.298250225
 30
0.0
 40
147.5000000000001
100
AcDbArc
 50
345.0
 51
345.971114907
  0
ARC
  5
10C
330
104
100
AcDbEntity
  8
FORMAT
 62
     0
100
AcDbCircle
 10
-104.298250225
 20
-104.298250225
 30
0.0
 40
147.5000000000001
100
AcDbArc
 50
344.028885093
 51
345.0
  0
ARC
  5
10D
330
104
100
AcDbEntity
  8
FORMAT
 62
     0
100
AcDbCircle
 10
-104.298250225
 20
-104.298250225
 30
0.0
 40
147.5000000000001
100
AcDbArc
 50
315.0
 51
315.971114907
  0
ARC
  5
10E
330
104
100
AcDbEntity
  8
FORMAT
 62
     0
100
AcDbCircle
 10
-104.298250225
 20
-104.298250225
 30
0.0
 40
147.5000000000001
100
AcDbArc
 50
314.028885093
 51
315.0
  0
ARC
  5
10F
330
104
100
AcDbEntity
  8
FORMAT
 62
     0
100
AcDbCircle
 10
-104.298250225
 20
-104.298250225
 30
0.0
 40
147.5
100
AcDbArc
 50
285.0
 51
285.971114907
  0
ARC
  5
110
330
104
100
AcDbEntity
  8
FORMAT
 62
     0
100
AcDbCircle
 10
-104.298250225
 20
-104.298250225
 30
0.0
 40
147.5
100
AcDbArc
 50
284.028885093
 51
285.0
  0
ARC
  5
111
330
104
100
AcDbEntity
  8
FORMAT
 62
     0
100
AcDbCircle
 10
-104.298250225
 20
-104.298250225
 30
0.0
 40
147.5
100
AcDbArc
 50
255.0
 51
255.971114907
  0
ARC
  5
112
330
104
100
AcDbEntity
  8
FORMAT
 62
     0
100
AcDbCircle
 10
-104.298250225
 20
-104.298250225
 30
0.0
 40
147.5
100
AcDbArc
 50
254.028885093
 51
255.0
  0
ARC
  5
113
330
104
100
AcDbEntity
  8
FORMAT
 62
     0
100
AcDbCircle
 10
-104.298250225
 20
-104.298250225
 30
0.0
 40
147.4999999999999
100
AcDbArc
 50
225.0
 51
225.971114907
  0
ARC
  5
114
330
104
100
AcDbEntity
  8
FORMAT
 62
     0
100
AcDbCircle
 10
-104.298250225
 20
-104.298250225
 30
0.0
 40
147.4999999999999
100
AcDbArc
 50
224.028885093
 51
225.0
  0
ARC
  5
115
330
104
100
AcDbEntity
  8
FORMAT
 62
     0
100
AcDbCircle
 10
-104.298250225
 20
-104.298250225
 30
0.0
 40
147.4999999999999
100
AcDbArc
 50
195.0
 51
195.971114907
  0
ARC
  5
116
330
104
100
AcDbEntity
  8
FORMAT
 62
     0
100
AcDbCircle
 10
-104.298250225
 20
-104.298250225
 30
0.0
 40
147.4999999999999
100
AcDbArc
 50
194.028885093
 51
195.0
  0
ARC
  5
117
330
104
100
AcDbEntity
  8
FORMAT
 62
     0
100
AcDbCircle
 10
-104.298250225
 20
-104.298250225
 30
0.0
 40
147.5
100
AcDbArc
 50
165.0
 51
165.971114907
  0
ARC
  5
118
330
104
100
AcDbEntity
  8
FORMAT
 62
     0
100
AcDbCircle
 10
-104.298250225
 20
-104.298250225
 30
0.0
 40
147.5
100
AcDbArc
 50
164.028885093
 51
165.0
  0
ARC
  5
119
330
104
100
AcDbEntity
  8
FORMAT
 62
     0
100
AcDbCircle
 10
-104.298250225
 20
-104.298250225
 30
0.0
 40
147.5
100
AcDbArc
 50
135.0
 51
135.971114907
  0
ARC
  5
11A
330
104
100
AcDbEntity
  8
FORMAT
 62
     0
100
AcDbCircle
 10
-104.298250225
 20
-104.298250225
 30
0.0
 40
147.5
100
AcDbArc
 50
134.028885093
 51
135.0
  0
ARC
  5
11B
330
104
100
AcDbEntity
  8
FORMAT
 62
     0
100
AcDbCircle
 10
-104.298250225
 20
-104.298250225
 30
0.0
 40
147.5
100
AcDbArc
 50
105.0
 51
105.971114907
  0
ARC
  5
11C
330
104
100
AcDbEntity
  8
FORMAT
 62
     0
100
AcDbCircle
 10
-104.298250225
 20
-104.298250225
 30
0.0
 40
147.5
100
AcDbArc
 50
104.028885093
 51
105.0
  0
ARC
  5
11D
330
104
100
AcDbEntity
  8
FORMAT
 62
     0
100
AcDbCircle
 10
-104.298250225
 20
-104.298250225
 30
0.0
 40
147.5000000000001
100
AcDbArc
 50
75.0
 51
75.971114907
  0
ARC
  5
11E
330
104
100
AcDbEntity
  8
FORMAT
 62
     0
100
AcDbCircle
 10
-104.298250225
 20
-104.298250225
 30
0.0
 40
147.5000000000001
100
AcDbArc
 50
74.028885093
 51
75.0
  0
ARC
  5
11F
330
104
100
AcDbEntity
  8
FORMAT
 62
     0
100
AcDbCircle
 10
-104.298250225
 20
-104.298250225
 30
0.0
 40
147.5000000000001
100
AcDbArc
 50
16.942229814
 51
43.057770186
  0
ARC
  5
120
330
104
100
AcDbEntity
  8
FORMAT
 62
     0
100
AcDbCircle
 10
-104.298250225
 20
-104.298250225
 30
0.0
 40
147.5000000000001
100
AcDbArc
 50
346.942229814
 51
13.057770186
  0
ARC
  5
121
330
104
100
AcDbEntity
  8
FORMAT
 62
     0
100
AcDbCircle
 10
-104.298250225
 20
-104.298250225
 30
0.0
 40
147.5000000000001
100
AcDbArc
 50
316.942229814
 51
343.057770186
  0
ARC
  5
122
330
104
100
AcDbEntity
  8
FORMAT
 62
     0
100
AcDbCircle
 10
-104.298250225
 20
-104.298250225
 30
0.0
 40
147.5
100
AcDbArc
 50
286.942229814
 51
313.057770186
  0
ARC
  5
123
330
104
100
AcDbEntity
  8
FORMAT
 62
     0
100
AcDbCircle
 10
-104.298250225
 20
-104.298250225
 30
0.0
 40
147.5
100
AcDbArc
 50
256.942229814
 51
283.057770186
  0
ARC
  5
124
330
104
100
AcDbEntity
  8
FORMAT
 62
     0
100
AcDbCircle
 10
-104.298250225
 20
-104.298250225
 30
0.0
 40
147.4999999999999
100
AcDbArc
 50
226.942229814
 51
253.057770186
  0
ARC
  5
125
330
104
100
AcDbEntity
  8
FORMAT
 62
     0
100
AcDbCircle
 10
-104.298250225
 20
-104.298250225
 30
0.0
 40
147.4999999999999
100
AcDbArc
 50
196.942229814
 51
223.057770186
  0
ARC
  5
126
330
104
100
AcDbEntity
  8
FORMAT
 62
     0
100
AcDbCircle
 10
-104.298250225
 20
-104.298250225
 30
0.0
 40
147.4999999999999
100
AcDbArc
 50
166.942229814
 51
193.057770186
  0
ARC
  5
127
330
104
100
AcDbEntity
  8
FORMAT
 62
     0
100
AcDbCircle
 10
-104.298250225
 20
-104.298250225
 30
0.0
 40
147.5
100
AcDbArc
 50
136.942229814
 51
163.057770186
  0
ARC
  5
128
330
104
100
AcDbEntity
  8
FORMAT
 62
     0
100
AcDbCircle
 10
-104.298250225
 20
-104.298250225
 30
0.0
 40
147.5
100
AcDbArc
 50
106.942229814
 51
133.057770186
  0
ARC
  5
129
330
104
100
AcDbEntity
  8
FORMAT
 62
     0
100
AcDbCircle
 10
-104.298250225
 20
-104.298250225
 30
0.0
 40
147.5000000000001
100
AcDbArc
 50
46.942229814
 51
73.057770186
  0
ARC
  5
12A
330
104
100
AcDbEntity
  8
FORMAT
 62
     0
100
AcDbCircle
 10
-104.298250225
 20
-104.298250225
 30
0.0
 40
147.5
100
AcDbArc
 50
76.942229814
 51
103.057770186
  0
LINE
  5
12B
330
104
100
AcDbEntity
  8
FORMAT
 62
     0
100
AcDbLine
 10
0.0
 20
0.0
 30
0.0
 11
1.767766953
 21
1.767766953
 31
0.0
  0
LINE
  5
12C
330
104
100
AcDbEntity
  8
FORMAT
 62
     0
100
AcDbLine
 10
0.0
 20
0.0
 30
0.0
 11
-1.767766953
 21
-1.767766953
 31
0.0
  0
LINE
  5
12D
330
104
100
AcDbEntity
  8
FORMAT
 62
     0
100
AcDbLine
 10
3.5355339059
 20
3.5355339059
 30
0.0
 11
10.6066017178
 21
10.6066017178
 31
0.0
  0
LINE
  5
12E
330
104
100
AcDbEntity
  8
FORMAT
 62
     0
100
AcDbLine
 10
-3.5355339059
 20
-3.5355339059
 30
0.0
 11
-10.6066017178
 21
-10.6066017178
 31
0.0
  0
LINE
  5
12F
330
104
100
AcDbEntity
  8
FORMAT
 62
     0
100
AcDbLine
 10
38.1758091526
 20
-66.1224410724
 30
0.0
 11
40.5906237183
 21
-65.4753934596
 31
0.0
  0
LINE
  5
130
330
104
100
AcDbEntity
  8
FORMAT
 62
     0
100
AcDbLine
 10
38.1758091526
 20
-66.1224410724
 30
0.0
 11
35.7609945869
 21
-66.7694886852
 31
0.0
  0
LINE
  5
131
330
104
100
AcDbEntity
  8
FORMAT
 62
     0
100
AcDbLine
 10
43.0054382841
 20
-64.8283458469
 30
0.0
 11
52.664696547
 21
-62.2401553959
 31
0.0
  0
LINE
  5
132
330
104
100
AcDbEntity
  8
FORMAT
 62
     0
100
AcDbLine
 10
33.3461800212
 20
-67.4165362979
 30
0.0
 11
23.6869217583
 21
-70.0047267489
 31
0.0
  0
LINE
  5
133
330
104
100
AcDbEntity
  8
FORMAT
 62
     0
100
AcDbLine
 10
38.1758091526
 20
-142.4740593776
 30
0.0
 11
40.5906237183
 21
-143.1211069904
 31
0.0
  0
LINE
  5
134
330
104
100
AcDbEntity
  8
FORMAT
 62
     0
100
AcDbLine
 10
38.1758091526
 20
-142.4740593776
 30
0.0
 11
35.7609945869
 21
-141.8270117649
 31
0.0
  0
LINE
  5
135
330
104
100
AcDbEntity
  8
FORMAT
 62
     0
100
AcDbLine
 10
43.0054382841
 20
-143.7681546032
 30
0.0
 11
52.664696547
 21
-146.3563450542
 31
0.0
  0
LINE
  5
136
330
104
100
AcDbEntity
  8
FORMAT
 62
     0
100
AcDbLine
 10
33.3461800212
 20
-141.1799641521
 30
0.0
 11
23.6869217583
 21
-138.5917737011
 31
0.0
  0
LINE
  5
137
330
104
100
AcDbEntity
  8
FORMAT
 62
     0
100
AcDbLine
 10
-104.298250225
 20
-104.298250225
 30
0.0
 11
-104.298250225
 21
-101.798250225
 31
0.0
  0
LINE
  5
138
330
104
100
AcDbEntity
  8
FORMAT
 62
     0
100
AcDbLine
 10
-104.298250225
 20
-104.298250225
 30
0.0
 11
-106.798250225
 21
-104.298250225
 31
0.0
  0
LINE
  5
139
330
104
100
AcDbEntity
  8
FORMAT
 62
     0
100
AcDbLine
 10
-104.298250225
 20
-104.298250225
 30
0.0
 11
-104.298250225
 21
-106.798250225
 31
0.0
  0
LINE
  5
13A
330
104
100
AcDbEntity
  8
FORMAT
 62
     0
100
AcDbLine
 10
-104.298250225
 20
-104.298250225
 30
0.0
 11
-101.798250225
 21
-104.298250225
 31
0.0
  0
LINE
  5
13B
330
104
100
AcDbEntity
  8
FORMAT
 62
     0
100
AcDbLine
 10
-104.298250225
 20
-99.298250225
 30
0.0
 11
-104.298250225
 21
77.7967065786
 31
0.0
  0
LINE
  5
13C
330
104
100
AcDbEntity
  8
FORMAT
 62
     0
100
AcDbLine
 10
-109.298250225
 20
-104.298250225
 30
0.0
 11
-272.1227285023
 21
-104.298250225
 31
0.0
  0
LINE
  5
13D
330
104
100
AcDbEntity
  8
FORMAT
 62
     0
100
AcDbLine
 10
-104.298250225
 20
-109.298250225
 30
0.0
 11
-104.298250225
 21
-283.8242595867
 31
0.0
  0
LINE
  5
13E
330
104
100
AcDbEntity
  8
FORMAT
 62
     0
100
AcDbLine
 10
-99.298250225
 20
-104.298250225
 30
0.0
 11
61.4588265535
 21
-104.298250225
 31
0.0
  0
LINE
  5
13F
330
104
100
AcDbEntity
  8
FORMAT
 62
     0
100
AcDbLine
 10
0.0
 20
-208.59650045
 30
0.0
 11
1.767766953
 21
-210.364267403
 31
0.0
  0
LINE
  5
140
330
104
100
AcDbEntity
  8
FORMAT
 62
     0
100
AcDbLine
 10
0.0
 20
-208.59650045
 30
0.0
 11
-1.767766953
 21
-206.8287334971
 31
0.0
  0
LINE
  5
141
330
104
100
AcDbEntity
  8
FORMAT
 62
     0
100
AcDbLine
 10
3.5355339059
 20
-212.132034356
 30
0.0
 11
10.6066017178
 21
-219.2031021678
 31
0.0
  0
LINE
  5
142
330
104
100
AcDbEntity
  8
FORMAT
 62
     0
100
AcDbLine
 10
-3.5355339059
 20
-205.0609665441
 30
0.0
 11
-10.6066017178
 21
-197.9898987322
 31
0.0
  0
LINE
  5
143
330
104
100
AcDbEntity
  8
FORMAT
 62
     0
100
AcDbLine
 10
-66.1224410724
 20
-246.7723096027
 30
0.0
 11
-65.4753934596
 21
-249.1871241684
 31
0.0
  0
LINE
  5
144
330
104
100
AcDbEntity
  8
FORMAT
 62
     0
100
AcDbLine
 10
-66.1224410724
 20
-246.7723096027
 30
0.0
 11
-66.7694886852
 21
-244.3574950369
 31
0.0
  0
LINE
  5
145
330
104
100
AcDbEntity
  8
FORMAT
 62
     0
100
AcDbLine
 10
-64.8283458469
 20
-251.6019387341
 30
0.0
 11
-62.2401553959
 21
-261.261196997
 31
0.0
  0
LINE
  5
146
330
104
100
AcDbEntity
  8
FORMAT
 62
     0
100
AcDbLine
 10
-67.4165362979
 20
-241.9426804712
 30
0.0
 11
-70.0047267489
 21
-232.2834222083
 31
0.0
  0
LINE
  5
147
330
104
100
AcDbEntity
  8
FORMAT
 62
     0
100
AcDbLine
 10
-142.4740593776
 20
-246.7723096027
 30
0.0
 11
-143.1211069904
 21
-249.1871241684
 31
0.0
  0
LINE
  5
148
330
104
100
AcDbEntity
  8
FORMAT
 62
     0
100
AcDbLine
 10
-142.4740593776
 20
-246.7723096027
 30
0.0
 11
-141.8270117649
 21
-244.3574950369
 31
0.0
  0
LINE
  5
149
330
104
100
AcDbEntity
  8
FORMAT
 62
     0
100
AcDbLine
 10
-143.7681546032
 20
-251.6019387341
 30
0.0
 11
-146.3563450542
 21
-261.261196997
 31
0.0
  0
LINE
  5
14A
330
104
100
AcDbEntity
  8
FORMAT
 62
     0
100
AcDbLine
 10
-141.1799641521
 20
-241.9426804712
 30
0.0
 11
-138.5917737011
 21
-232.2834222083
 31
0.0
  0
LINE
  5
14B
330
104
100
AcDbEntity
  8
FORMAT
 62
     0
100
AcDbLine
 10
-208.59650045
 20
-208.59650045
 30
0.0
 11
-210.364267403
 21
-210.364267403
 31
0.0
  0
LINE
  5
14C
330
104
100
AcDbEntity
  8
FORMAT
 62
     0
100
AcDbLine
 10
-208.59650045
 20
-208.59650045
 30
0.0
 11
-206.8287334971
 21
-206.8287334971
 31
0.0
  0
LINE
  5
14D
330
104
100
AcDbEntity
  8
FORMAT
 62
     0
100
AcDbLine
 10
-212.132034356
 20
-212.132034356
 30
0.0
 11
-219.2031021678
 21
-219.2031021678
 31
0.0
  0
LINE
  5
14E
330
104
100
AcDbEntity
  8
FORMAT
 62
     0
100
AcDbLine
 10
-205.0609665441
 20
-205.0609665441
 30
0.0
 11
-197.9898987322
 21
-197.9898987322
 31
0.0
  0
LINE
  5
14F
330
104
100
AcDbEntity
  8
FORMAT
 62
     0
100
AcDbLine
 10
-246.7723096027
 20
-142.4740593776
 30
0.0
 11
-249.1871241684
 21
-143.1211069904
 31
0.0
  0
LINE
  5
150
330
104
100
AcDbEntity
  8
FORMAT
 62
     0
100
AcDbLine
 10
-246.7723096027
 20
-142.4740593776
 30
0.0
 11
-244.3574950369
 21
-141.8270117649
 31
0.0
  0
LINE
  5
151
330
104
100
AcDbEntity
  8
FORMAT
 62
     0
100
AcDbLine
 10
-251.6019387341
 20
-143.7681546031
 30
0.0
 11
-261.261196997
 21
-146.3563450542
 31
0.0
  0
LINE
  5
152
330
104
100
AcDbEntity
  8
FORMAT
 62
     0
100
AcDbLine
 10
-241.9426804712
 20
-141.1799641521
 30
0.0
 11
-232.2834222083
 21
-138.5917737011
 31
0.0
  0
LINE
  5
153
330
104
100
AcDbEntity
  8
FORMAT
 62
     0
100
AcDbLine
 10
-246.7723096027
 20
-66.1224410724
 30
0.0
 11
-249.1871241684
 21
-65.4753934596
 31
0.0
  0
LINE
  5
154
330
104
100
AcDbEntity
  8
FORMAT
 62
     0
100
AcDbLine
 10
-246.7723096027
 20
-66.1224410724
 30
0.0
 11
-244.3574950369
 21
-66.7694886851
 31
0.0
  0
LINE
  5
155
330
104
100
AcDbEntity
  8
FORMAT
 62
     0
100
AcDbLine
 10
-251.6019387341
 20
-64.8283458469
 30
0.0
 11
-261.261196997
 21
-62.2401553959
 31
0.0
  0
LINE
  5
156
330
104
100
AcDbEntity
  8
FORMAT
 62
     0
100
AcDbLine
 10
-241.9426804712
 20
-67.4165362979
 30
0.0
 11
-232.2834222083
 21
-70.0047267489
 31
0.0
  0
LINE
  5
157
330
104
100
AcDbEntity
  8
FORMAT
 62
     0
100
AcDbLine
 10
-208.59650045
 20
0.0
 30
0.0
 11
-210.364267403
 21
1.767766953
 31
0.0
  0
LINE
  5
158
330
104
100
AcDbEntity
  8
FORMAT
 62
     0
100
AcDbLine
 10
-208.59650045
 20
0.0
 30
0.0
 11
-206.8287334971
 21
-1.767766953
 31
0.0
  0
LINE
  5
159
330
104
100
AcDbEntity
  8
FORMAT
 62
     0
100
AcDbLine
 10
-212.132034356
 20
3.5355339059
 30
0.0
 11
-219.2031021678
 21
10.6066017178
 31
0.0
  0
LINE
  5
15A
330
104
100
AcDbEntity
  8
FORMAT
 62
     0
100
AcDbLine
 10
-205.0609665441
 20
-3.5355339059
 30
0.0
 11
-197.9898987322
 21
-10.6066017178
 31
0.0
  0
LINE
  5
15B
330
104
100
AcDbEntity
  8
FORMAT
 62
     0
100
AcDbLine
 10
-142.4740593776
 20
38.1758091526
 30
0.0
 11
-143.1211069904
 21
40.5906237183
 31
0.0
  0
LINE
  5
15C
330
104
100
AcDbEntity
  8
FORMAT
 62
     0
100
AcDbLine
 10
-142.4740593776
 20
38.1758091526
 30
0.0
 11
-141.8270117649
 21
35.7609945869
 31
0.0
  0
LINE
  5
15D
330
104
100
AcDbEntity
  8
FORMAT
 62
     0
100
AcDbLine
 10
-143.7681546031
 20
43.0054382841
 30
0.0
 11
-146.3563450542
 21
52.664696547
 31
0.0
  0
LINE
  5
15E
330
104
100
AcDbEntity
  8
FORMAT
 62
     0
100
AcDbLine
 10
-141.1799641521
 20
33.3461800212
 30
0.0
 11
-138.5917737011
 21
23.6869217583
 31
0.0
  0
LINE
  5
15F
330
104
100
AcDbEntity
  8
FORMAT
 62
     0
100
AcDbLine
 10
-66.1224410724
 20
38.1758091526
 30
0.0
 11
-65.4753934596
 21
40.5906237183
 31
0.0
  0
LINE
  5
160
330
104
100
AcDbEntity
  8
FORMAT
 62
     0
100
AcDbLine
 10
-66.1224410724
 20
38.1758091526
 30
0.0
 11
-66.7694886851
 21
35.7609945869
 31
0.0
  0
LINE
  5
161
330
104
100
AcDbEntity
  8
FORMAT
 62
     0
100
AcDbLine
 10
-64.8283458469
 20
43.0054382841
 30
0.0
 11
-62.2401553959
 21
52.664696547
 31
0.0
  0
LINE
  5
162
330
104
100
AcDbEntity
  8
FORMAT
 62
     0
100
AcDbLine
 10
-67.4165362979
 20
33.3461800212
 30
0.0
 11
-70.0047267489
 21
23.6869217583
 31
0.0
  0
ENDBLK
  5
106
330
104
100
AcDbEntity
  8
0
100
AcDbBlockEnd
  0
BLOCK
  5
1F0
330
1EF
100
AcDbEntity
  8
0
100
AcDbBlockBegin
  2
SW_CENTERMARKSYMBOL_1
 70
     0
 10
0.0
 20
0.0
 30
0.0
  3
SW_CENTERMARKSYMBOL_1
  1

  0
LINE
  5
1F2
330
1EF
100
AcDbEntity
  8
FORMAT
 62
     0
100
AcDbLine
 10
0.0
 20
0.0
 30
0.0
 11
0.0
 21
2.5
 31
0.0
  0
LINE
  5
1F3
330
1EF
100
AcDbEntity
  8
FORMAT
 62
     0
100
AcDbLine
 10
0.0
 20
0.0
 30
0.0
 11
-2.5
 21
0.0
 31
0.0
  0
LINE
  5
1F4
330
1EF
100
AcDbEntity
  8
FORMAT
 62
     0
100
AcDbLine
 10
0.0
 20
0.0
 30
0.0
 11
0.0
 21
-2.5
 31
0.0
  0
LINE
  5
1F5
330
1EF
100
AcDbEntity
  8
FORMAT
 62
     0
100
AcDbLine
 10
0.0
 20
0.0
 30
0.0
 11
2.5
 21
0.0
 31
0.0
  0
LINE
  5
1F6
330
1EF
100
AcDbEntity
  8
FORMAT
 62
     0
100
AcDbLine
 10
0.0
 20
5.0
 30
0.0
 11
0.0
 21
75.8910663631
 31
0.0
  0
LINE
  5
1F7
330
1EF
100
AcDbEntity
  8
FORMAT
 62
     0
100
AcDbLine
 10
-5.0
 20
0.0
 30
0.0
 11
-68.4787708882
 21
0.0
 31
0.0
  0
LINE
  5
1F8
330
1EF
100
AcDbEntity
  8
FORMAT
 62
     0
100
AcDbLine
 10
0.0
 20
-5.0
 30
0.0
 11
0.0
 21
-71.6631241104
 31
0.0
  0
LINE
  5
1F9
330
1EF
100
AcDbEntity
  8
FORMAT
 62
     0
100
AcDbLine
 10
5.0
 20
0.0
 30
0.0
 11
95.2587824114
 21
0.0
 31
0.0
  0
ENDBLK
  5
1F1
330
1EF
100
AcDbEntity
  8
0
100
AcDbBlockEnd
  0
BLOCK
  5
352
330
351
100
AcDbEntity
  8
0
100
AcDbBlockBegin
  2
SW_CENTERMARKSYMBOL_2
 70
     0
 10
0.0
 20
0.0
 30
0.0
  3
SW_CENTERMARKSYMBOL_2
  1

  0
LINE
  5
354
330
351
100
AcDbEntity
  8
FORMAT
 62
     0
100
AcDbLine
 10
0.0
 20
0.0
 30
0.0
 11
0.0
 21
2.5
 31
0.0
  0
LINE
  5
355
330
351
100
AcDbEntity
  8
FORMAT
 62
     0
100
AcDbLine
 10
0.0
 20
0.0
 30
0.0
 11
-2.5
 21
0.0
 31
0.0
  0
LINE
  5
356
330
351
100
AcDbEntity
  8
FORMAT
 62
     0
100
AcDbLine
 10
0.0
 20
0.0
 30
0.0
 11
0.0
 21
-2.5
 31
0.0
  0
LINE
  5
357
330
351
100
AcDbEntity
  8
FORMAT
 62
     0
100
AcDbLine
 10
0.0
 20
0.0
 30
0.0
 11
2.5
 21
0.0
 31
0.0
  0
LINE
  5
358
330
351
100
AcDbEntity
  8
FORMAT
 62
     0
100
AcDbLine
 10
0.0
 20
5.0
 30
0.0
 11
0.0
 21
12.5
 31
0.0
  0
LINE
  5
359
330
351
100
AcDbEntity
  8
FORMAT
 62
     0
100
AcDbLine
 10
-5.0
 20
0.0
 30
0.0
 11
-12.5
 21
0.0
 31
0.0
  0
LINE
  5
35A
330
351
100
AcDbEntity
  8
FORMAT
 62
     0
100
AcDbLine
 10
0.0
 20
-5.0
 30
0.0
 11
0.0
 21
-12.5
 31
0.0
  0
LINE
  5
35B
330
351
100
AcDbEntity
  8
FORMAT
 62
     0
100
AcDbLine
 10
5.0
 20
0.0
 30
0.0
 11
12.5
 21
0.0
 31
0.0
  0
ENDBLK
  5
353
330
351
100
AcDbEntity
  8
0
100
AcDbBlockEnd
  0
BLOCK
  5
35E
330
35D
100
AcDbEntity
  8
0
100
AcDbBlockBegin
  2
SW_CENTERMARKSYMBOL_3
 70
     0
 10
0.0
 20
0.0
 30
0.0
  3
SW_CENTERMARKSYMBOL_3
  1

  0
LINE
  5
360
330
35D
100
AcDbEntity
  8
FORMAT
 62
     0
100
AcDbLine
 10
0.0
 20
0.0
 30
0.0
 11
0.0
 21
2.5
 31
0.0
  0
LINE
  5
361
330
35D
100
AcDbEntity
  8
FORMAT
 62
     0
100
AcDbLine
 10
0.0
 20
0.0
 30
0.0
 11
-2.5
 21
0.0
 31
0.0
  0
LINE
  5
362
330
35D
100
AcDbEntity
  8
FORMAT
 62
     0
100
AcDbLine
 10
0.0
 20
0.0
 30
0.0
 11
0.0
 21
-2.5
 31
0.0
  0
LINE
  5
363
330
35D
100
AcDbEntity
  8
FORMAT
 62
     0
100
AcDbLine
 10
0.0
 20
0.0
 30
0.0
 11
2.5
 21
0.0
 31
0.0
  0
LINE
  5
364
330
35D
100
AcDbEntity
  8
FORMAT
 62
     0
100
AcDbLine
 10
0.0
 20
5.0
 30
0.0
 11
0.0
 21
28.1899184605
 31
0.0
  0
LINE
  5
365
330
35D
100
AcDbEntity
  8
FORMAT
 62
     0
100
AcDbLine
 10
-5.0
 20
0.0
 30
0.0
 11
-27.918494969
 21
0.0
 31
0.0
  0
LINE
  5
366
330
35D
100
AcDbEntity
  8
FORMAT
 62
     0
100
AcDbLine
 10
0.0
 20
-5.0
 30
0.0
 11
0.0
 21
-27.9758701713
 31
0.0
  0
LINE
  5
367
330
35D
100
AcDbEntity
  8
FORMAT
 62
     0
100
AcDbLine
 10
5.0
 20
0.0
 30
0.0
 11
28.2472936628
 21
0.0
 31
0.0
  0
ENDBLK
  5
35F
330
35D
100
AcDbEntity
  8
0
100
AcDbBlockEnd
  0
BLOCK
  5
36A
330
369
100
AcDbEntity
  8
0
100
AcDbBlockBegin
  2
SW_CENTERMARKSYMBOL_4
 70
     0
 10
0.0
 20
0.0
 30
0.0
  3
SW_CENTERMARKSYMBOL_4
  1

  0
LINE
  5
36C
330
369
100
AcDbEntity
  8
FORMAT
 62
     0
100
AcDbLine
 10
0.0
 20
0.0
 30
0.0
 11
0.0
 21
2.5
 31
0.0
  0
LINE
  5
36D
330
369
100
AcDbEntity
  8
FORMAT
 62
     0
100
AcDbLine
 10
0.0
 20
0.0
 30
0.0
 11
-2.5
 21
0.0
 31
0.0
  0
LINE
  5
36E
330
369
100
AcDbEntity
  8
FORMAT
 62
     0
100
AcDbLine
 10
0.0
 20
0.0
 30
0.0
 11
0.0
 21
-2.5
 31
0.0
  0
LINE
  5
36F
330
369
100
AcDbEntity
  8
FORMAT
 62
     0
100
AcDbLine
 10
0.0
 20
0.0
 30
0.0
 11
2.5
 21
0.0
 31
0.0
  0
LINE
  5
370
330
369
100
AcDbEntity
  8
FORMAT
 62
     0
100
AcDbLine
 10
0.0
 20
5.0
 30
0.0
 11
0.0
 21
20.6561649764
 31
0.0
  0
LINE
  5
371
330
369
100
AcDbEntity
  8
FORMAT
 62
     0
100
AcDbLine
 10
-5.0
 20
0.0
 30
0.0
 11
-20.6561649764
 21
0.0
 31
0.0
  0
LINE
  5
372
330
369
100
AcDbEntity
  8
FORMAT
 62
     0
100
AcDbLine
 10
0.0
 20
-5.0
 30
0.0
 11
0.0
 21
-20.6561649764
 31
0.0
  0
LINE
  5
373
330
369
100
AcDbEntity
  8
FORMAT
 62
     0
100
AcDbLine
 10
5.0
 20
0.0
 30
0.0
 11
20.6561649764
 21
0.0
 31
0.0
  0
ENDBLK
  5
36B
330
369
100
AcDbEntity
  8
0
100
AcDbBlockEnd
  0
BLOCK
  5
376
330
375
100
AcDbEntity
  8
0
100
AcDbBlockBegin
  2
SW_CENTERMARKSYMBOL_5
 70
     0
 10
0.0
 20
0.0
 30
0.0
  3
SW_CENTERMARKSYMBOL_5
  1

  0
LINE
  5
378
330
375
100
AcDbEntity
  8
FORMAT
 62
     0
100
AcDbLine
 10
0.0
 20
0.0
 30
0.0
 11
0.0
 21
2.5
 31
0.0
  0
LINE
  5
379
330
375
100
AcDbEntity
  8
FORMAT
 62
     0
100
AcDbLine
 10
0.0
 20
0.0
 30
0.0
 11
-2.5
 21
0.0
 31
0.0
  0
LINE
  5
37A
330
375
100
AcDbEntity
  8
FORMAT
 62
     0
100
AcDbLine
 10
0.0
 20
0.0
 30
0.0
 11
0.0
 21
-2.5
 31
0.0
  0
LINE
  5
37B
330
375
100
AcDbEntity
  8
FORMAT
 62
     0
100
AcDbLine
 10
0.0
 20
0.0
 30
0.0
 11
2.5
 21
0.0
 31
0.0
  0
LINE
  5
37C
330
375
100
AcDbEntity
  8
FORMAT
 62
     0
100
AcDbLine
 10
0.0
 20
5.0
 30
0.0
 11
0.0
 21
20.6561649764
 31
0.0
  0
LINE
  5
37D
330
375
100
AcDbEntity
  8
FORMAT
 62
     0
100
AcDbLine
 10
-5.0
 20
0.0
 30
0.0
 11
-20.6561649764
 21
0.0
 31
0.0
  0
LINE
  5
37E
330
375
100
AcDbEntity
  8
FORMAT
 62
     0
100
AcDbLine
 10
0.0
 20
-5.0
 30
0.0
 11
0.0
 21
-20.6561649764
 31
0.0
  0
LINE
  5
37F
330
375
100
AcDbEntity
  8
FORMAT
 62
     0
100
AcDbLine
 10
5.0
 20
0.0
 30
0.0
 11
20.6561649764
 21
0.0
 31
0.0
  0
ENDBLK
  5
377
330
375
100
AcDbEntity
  8
0
100
AcDbBlockEnd
  0
BLOCK
  5
382
330
381
100
AcDbEntity
  8
0
100
AcDbBlockBegin
  2
SW_CENTERMARKSYMBOL_6
 70
     0
 10
0.0
 20
0.0
 30
0.0
  3
SW_CENTERMARKSYMBOL_6
  1

  0
LINE
  5
384
330
381
100
AcDbEntity
  8
FORMAT
 62
     0
100
AcDbLine
 10
0.0
 20
0.0
 30
0.0
 11
0.0
 21
2.5
 31
0.0
  0
LINE
  5
385
330
381
100
AcDbEntity
  8
FORMAT
 62
     0
100
AcDbLine
 10
0.0
 20
0.0
 30
0.0
 11
-2.5
 21
0.0
 31
0.0
  0
LINE
  5
386
330
381
100
AcDbEntity
  8
FORMAT
 62
     0
100
AcDbLine
 10
0.0
 20
0.0
 30
0.0
 11
0.0
 21
-2.5
 31
0.0
  0
LINE
  5
387
330
381
100
AcDbEntity
  8
FORMAT
 62
     0
100
AcDbLine
 10
0.0
 20
0.0
 30
0.0
 11
2.5
 21
0.0
 31
0.0
  0
LINE
  5
388
330
381
100
AcDbEntity
  8
FORMAT
 62
     0
100
AcDbLine
 10
0.0
 20
5.0
 30
0.0
 11
0.0
 21
20.6561649764
 31
0.0
  0
LINE
  5
389
330
381
100
AcDbEntity
  8
FORMAT
 62
     0
100
AcDbLine
 10
-5.0
 20
0.0
 30
0.0
 11
-20.6561649764
 21
0.0
 31
0.0
  0
LINE
  5
38A
330
381
100
AcDbEntity
  8
FORMAT
 62
     0
100
AcDbLine
 10
0.0
 20
-5.0
 30
0.0
 11
0.0
 21
-20.6561649764
 31
0.0
  0
LINE
  5
38B
330
381
100
AcDbEntity
  8
FORMAT
 62
     0
100
AcDbLine
 10
5.0
 20
0.0
 30
0.0
 11
20.6561649764
 21
0.0
 31
0.0
  0
ENDBLK
  5
383
330
381
100
AcDbEntity
  8
0
100
AcDbBlockEnd
  0
BLOCK
  5
38E
330
38D
100
AcDbEntity
  8
0
100
AcDbBlockBegin
  2
SW_CENTERMARKSYMBOL_7
 70
     0
 10
0.0
 20
0.0
 30
0.0
  3
SW_CENTERMARKSYMBOL_7
  1

  0
LINE
  5
390
330
38D
100
AcDbEntity
  8
FORMAT
 62
     0
100
AcDbLine
 10
0.0
 20
0.0
 30
0.0
 11
0.0
 21
2.5
 31
0.0
  0
LINE
  5
391
330
38D
100
AcDbEntity
  8
FORMAT
 62
     0
100
AcDbLine
 10
0.0
 20
0.0
 30
0.0
 11
-2.5
 21
0.0
 31
0.0
  0
LINE
  5
392
330
38D
100
AcDbEntity
  8
FORMAT
 62
     0
100
AcDbLine
 10
0.0
 20
0.0
 30
0.0
 11
0.0
 21
-2.5
 31
0.0
  0
LINE
  5
393
330
38D
100
AcDbEntity
  8
FORMAT
 62
     0
100
AcDbLine
 10
0.0
 20
0.0
 30
0.0
 11
2.5
 21
0.0
 31
0.0
  0
LINE
  5
394
330
38D
100
AcDbEntity
  8
FORMAT
 62
     0
100
AcDbLine
 10
0.0
 20
5.0
 30
0.0
 11
0.0
 21
20.6561649764
 31
0.0
  0
LINE
  5
395
330
38D
100
AcDbEntity
  8
FORMAT
 62
     0
100
AcDbLine
 10
-5.0
 20
0.0
 30
0.0
 11
-20.6561649764
 21
0.0
 31
0.0
  0
LINE
  5
396
330
38D
100
AcDbEntity
  8
FORMAT
 62
     0
100
AcDbLine
 10
0.0
 20
-5.0
 30
0.0
 11
0.0
 21
-20.6561649764
 31
0.0
  0
LINE
  5
397
330
38D
100
AcDbEntity
  8
FORMAT
 62
     0
100
AcDbLine
 10
5.0
 20
0.0
 30
0.0
 11
20.6561649764
 21
0.0
 31
0.0
  0
ENDBLK
  5
38F
330
38D
100
AcDbEntity
  8
0
100
AcDbBlockEnd
  0
ENDSEC
  0
SECTION
  2
ENTITIES
  0
LINE
  5
48
330
1F
100
AcDbEntity
  8
TOOLING_TABLE
 62
     7
100
AcDbLine
 10
558.0
 20
36.8671069427
 30
0.0
 11
644.0
 21
36.8671069427
 31
0.0
  0
LINE
  5
49
330
1F
100
AcDbEntity
  8
TOOLING_TABLE
 62
     7
100
AcDbLine
 10
558.0
 20
24.8671069427
 30
0.0
 11
644.0
 21
24.8671069427
 31
0.0
  0
LINE
  5
4A
330
1F
100
AcDbEntity
  8
TOOLING_TABLE
 62
     7
100
AcDbLine
 10
558.0
 20
63.8671069427
 30
0.0
 11
558.0
 21
12.8671069427
 31
0.0
  0
LINE
  5
4B
330
1F
100
AcDbEntity
  8
TOOLING_TABLE
100
AcDbLine
 10
558.0
 20
12.8671069427
 30
0.0
 11
644.0
 21
12.8671069427
 31
0.0
  0
LINE
  5
4C
330
1F
100
AcDbEntity
  8
TOOLING_TABLE
100
AcDbLine
 10
644.0
 20
63.8671069427
 30
0.0
 11
644.0
 21
12.8671069427
 31
0.0
  0
LINE
  5
4D
330
1F
100
AcDbEntity
  8
TOOLING_TABLE
 62
     7
100
AcDbLine
 10
558.0
 20
45.8671069427
 30
0.0
 11
644.0
 21
45.8671069427
 31
0.0
  0
LINE
  5
4E
330
1F
100
AcDbEntity
  8
TOOLING_TABLE
 62
     7
100
AcDbLine
 10
558.0
 20
54.8671069427
 30
0.0
 11
644.0
 21
54.8671069427
 31
0.0
  0
LINE
  5
4F
330
1F
100
AcDbEntity
  8
TOOLING_TABLE
 62
     7
100
AcDbLine
 10
558.0
 20
63.8671069427
 30
0.0
 11
644.0
 21
63.8671069427
 31
0.0
  0
LINE
  5
50
330
1F
100
AcDbEntity
  8
TOOLING_TABLE
 62
     7
100
AcDbLine
 10
601.0
 20
63.8671069427
 30
0.0
 11
601.0
 21
36.8671069427
 31
0.0
  0
LINE
  5
51
330
1F
100
AcDbEntity
  8
TOOLING_TABLE
 62
     7
370
     0
100
AcDbLine
 10
624.0
 20
54.8671069427
 30
0.0
 11
624.0
 21
45.8671069427
 31
0.0
  0
MTEXT
  5
53
330
1F
100
AcDbEntity
  8
TOOLING_TABLE
100
AcDbMText
 10
602.1062783613
 20
54.2702582207
 30
0.0
 40
1.2
 41
0.0
 71
     1
 72
     1
  1
Date:
  7
SLDTEXTSTYLE0
 73
     1
 44
1.0
  0
MTEXT
  5
54
330
1F
100
AcDbEntity
  8
TOOLING_TABLE
100
AcDbMText
 10
603.018097772
 20
49.8283199631
 30
0.0
 40
2.5
 41
0.0
 71
     1
 72
     1
  1
yyyy.mm.dd
  7
SLDTEXTSTYLE0
 73
     1
 44
1.0
  0
MTEXT
  5
55
330
1F
100
AcDbEntity
  8
TOOLING_TABLE
100
AcDbMText
 10
560.201296573
 20
19.1574227188
 30
0.0
 40
2.6458333333
 41
0.0
 71
     1
 72
     1
  1
-
  7
SLDTEXTSTYLE0
 73
     1
 44
1.0
  0
MTEXT
  5
56
330
1F
100
AcDbEntity
  8
TOOLING_TABLE
100
AcDbMText
 10
560.201296573
 20
31.4173726938
 30
0.0
 40
2.6458333333
 41
0.0
 71
     1
 72
     1
  1
-
  7
SLDTEXTSTYLE0
 73
     1
 44
1.0
  0
MTEXT
  5
57
330
1F
100
AcDbEntity
  8
TOOLING_TABLE
100
AcDbMText
 10
560.201296573
 20
41.3865649653
 30
0.0
 40
2.6458333333
 41
0.0
 71
     1
 72
     1
  1
-
  7
SLDTEXTSTYLE0
 73
     1
 44
1.0
  0
MTEXT
  5
58
330
1F
100
AcDbEntity
  8
TOOLING_TABLE
100
AcDbMText
 10
559.8363625628
 20
49.9958228804
 30
0.0
 40
2.6458333333
 41
0.0
 71
     1
 72
     1
  1
-
  7
SLDTEXTSTYLE0
 73
     1
 44
1.0
  0
MTEXT
  5
59
330
1F
100
AcDbEntity
  8
TOOLING_TABLE
100
AcDbMText
 10
603.9499678367
 20
41.662126356
 30
0.0
 40
2.5
 41
0.0
 71
     1
 72
     1
  1
-
  7
SLDTEXTSTYLE0
 73
     1
 44
1.0
  0
MTEXT
  5
5A
330
1F
100
AcDbEntity
  8
TOOLING_TABLE
100
AcDbMText
 10
630.2212650386
 20
50.3962796907
 30
0.0
 40
3.175
 41
0.0
 71
     1
 72
     1
  1
-
  7
SLDTEXTSTYLE0
 73
     1
 44
1.0
  0
MTEXT
  5
5B
330
1F
100
AcDbEntity
  8
TOOLING_TABLE
100
AcDbMText
 10
610.1822179805
 20
60.6243780584
 30
0.0
 40
3.175
 41
0.0
 71
     1
 72
     1
  1
T-
  7
SLDTEXTSTYLE0
 73
     1
 44
1.0
  0
MTEXT
  5
5C
330
1F
100
AcDbEntity
  8
TOOLING_TABLE
 62
     7
100
AcDbMText
 10
559.1184091958
 20
45.4874334828
 30
0.0
 40
1.2
 41
0.0
 71
     1
 72
     1
  1
Not specified chamfer:
  7
SLDTEXTSTYLE0
 73
     1
 44
1.0
  0
MTEXT
  5
5D
330
1F
100
AcDbEntity
  8
TOOLING_TABLE
100
AcDbMText
 10
559.1184091958
 20
54.2702582207
 30
0.0
 40
1.2
 41
0.0
 71
     1
 72
     1
  1
Not specified tolerance:
  7
SLDTEXTSTYLE0
 73
     1
 44
1.0
  0
MTEXT
  5
5E
330
1F
100
AcDbEntity
  8
TOOLING_TABLE
100
AcDbMText
 10
559.1184091958
 20
36.1184577829
 30
0.0
 40
1.2
 41
0.0
 71
     1
 72
     1
  1
Hardening & Surfacing:
  7
SLDTEXTSTYLE0
 73
     1
 44
1.0
  0
MTEXT
  5
5F
330
1F
100
AcDbEntity
  8
TOOLING_TABLE
100
AcDbMText
 10
559.1184091958
 20
24.3382170231
 30
0.0
 40
1.2
 41
0.0
 71
     1
 72
     1
  1
Notes:
  7
SLDTEXTSTYLE0
 73
     1
 44
1.0
  0
MTEXT
  5
60
330
1F
100
AcDbEntity
  8
TOOLING_TABLE
100
AcDbMText
 10
602.1062783613
 20
45.4874334828
 30
0.0
 40
1.2
 41
0.0
 71
     1
 72
     1
  1
Ekstern part no.:
  7
SLDTEXTSTYLE0
 73
     1
 44
1.0
  0
MTEXT
  5
61
330
1F
100
AcDbEntity
  8
TOOLING_TABLE
100
AcDbMText
 10
624.6246212708
 20
54.2702582207
 30
0.0
 40
1.2
 41
0.0
 71
     1
 72
     1
  1
Number:
  7
SLDTEXTSTYLE0
 73
     1
 44
1.0
  0
MTEXT
  5
62
330
1F
100
AcDbEntity
  8
TOOLING_TABLE
100
AcDbMText
 10
601.8747919494
 20
63.2637332969
 30
0.0
 40
1.2
 41
0.0
 71
     1
 72
     1
  1
Order no.:
  7
SLDTEXTSTYLE0
 73
     1
 44
1.0
  0
MTEXT
  5
63
330
1F
100
AcDbEntity
  8
TOOLING_TABLE
100
AcDbMText
 10
561.334242998
 20
60.6243780584
 30
0.0
 40
3.175
 41
0.0
 71
     1
 72
     1
  1
AVK Tech Tooling
  7
SLDTEXTSTYLE0
 73
     1
 44
1.0
  0
LINE
  5
64
330
1F
100
AcDbEntity
  8
0
  6
Continuous
 62
     7
370
    15
100
AcDbLine
 10
84.4259619211
 20
503.9437464591
 30
0.0
 11
84.4259619211
 21
607.9437486049
 31
0.0
  0
LINE
  5
65
330
1F
100
AcDbEntity
  8
0
  6
Continuous
 62
     7
370
    15
100
AcDbLine
 10
64.4259660935
 20
607.9437486049
 30
0.0
 11
64.4259660935
 21
503.9437464591
 31
0.0
  0
LINE
  5
66
330
1F
100
AcDbEntity
  8
0
  6
Continuous
 62
     7
370
    15
100
AcDbLine
 10
114.9259566759
 20
367.4437455055
 30
0.0
 11
132.4259548878
 21
367.4437455055
 31
0.0
  0
LINE
  5
67
330
1F
100
AcDbEntity
  8
0
  6
Continuous
 62
     7
370
    15
100
AcDbLine
 10
132.4259548878
 20
492.4437455055
 30
0.0
 11
114.9259566759
 21
492.4437455055
 31
0.0
  0
LINE
  5
68
330
1F
100
AcDbEntity
  8
0
  6
Continuous
 62
     7
370
    15
100
AcDbLine
 10
541.9259577488
 20
492.4437455055
 30
0.0
 11
497.4259644245
 21
492.4437455055
 31
0.0
  0
LINE
  5
69
330
1F
100
AcDbEntity
  8
0
  6
Continuous
 62
     7
370
    15
100
AcDbLine
 10
497.4259644245
 20
367.4437455055
 30
0.0
 11
541.9259577488
 21
367.4437455055
 31
0.0
  0
LINE
  5
6A
330
1F
100
AcDbEntity
  8
0
  6
Continuous
 62
     7
370
    15
100
AcDbLine
 10
35.9259455895
 20
466.443744969
 30
0.0
 11
34.9259584641
 21
466.443744969
 31
0.0
  0
LINE
  5
6B
330
1F
100
AcDbEntity
  8
0
  6
Continuous
 62
     7
370
    15
100
AcDbLine
 10
34.9259584641
 20
393.4437460419
 30
0.0
 11
35.9259455895
 21
393.4437460419
 31
0.0
  0
LINE
  5
6C
330
1F
100
AcDbEntity
  8
0
  6
Continuous
 62
     7
370
    15
100
AcDbLine
 10
35.9259455895
 20
360.943747234
 30
0.0
 11
47.9159563278
 21
360.943747234
 31
0.0
  0
LINE
  5
6D
330
1F
100
AcDbEntity
  8
0
  6
Continuous
 62
     7
370
    15
100
AcDbLine
 10
108.6059569811
 20
360.943747234
 30
0.0
 11
114.9259566759
 21
360.943747234
 31
0.0
  0
LINE
  5
6E
330
1F
100
AcDbEntity
  8
0
  6
Continuous
 62
     7
370
    15
100
AcDbLine
 10
114.9259566759
 20
498.9437437769
 30
0.0
 11
108.6059569811
 21
498.9437437769
 31
0.0
  0
LINE
  5
6F
330
1F
100
AcDbEntity
  8
0
  6
Continuous
 62
     7
370
    15
100
AcDbLine
 10
47.9159563278
 20
498.9437437769
 30
0.0
 11
35.9259455895
 21
498.9437437769
 31
0.0
  0
CIRCLE
  5
70
330
1F
100
AcDbEntity
  8
0
  6
Continuous
 62
     7
370
    15
100
AcDbCircle
 10
314.9259596562
 20
424.9437455055
 30
0.0
 40
132.9999999999999
  0
CIRCLE
  5
71
330
1F
100
AcDbEntity
  8
0
  6
Continuous
 62
     7
370
    15
100
AcDbCircle
 10
314.9259596562
 20
424.9437455055
 30
0.0
 40
101.9999999999999
  0
CIRCLE
  5
72
330
1F
100
AcDbEntity
  8
0
  6
Continuous
 62
     7
370
    15
100
AcDbCircle
 10
457.4000190338
 20
386.7679363528
 30
0.0
 40
12.50000000000003
  0
CIRCLE
  5
73
330
1F
100
AcDbEntity
  8
0
  6
Continuous
 62
     7
370
    15
100
AcDbCircle
 10
353.1017688088
 20
282.4696861278
 30
0.0
 40
12.5
  0
CIRCLE
  5
74
330
1F
100
AcDbEntity
  8
0
  6
Continuous
 62
     7
370
    15
100
AcDbCircle
 10
172.4519002785
 20
386.7679363528
 30
0.0
 40
12.5
  0
CIRCLE
  5
75
330
1F
100
AcDbEntity
  8
0
  6
Continuous
 62
     7
370
    15
100
AcDbCircle
 10
419.2242098812
 20
529.2419957305
 30
0.0
 40
12.50000000000009
  0
CIRCLE
  5
76
330
1F
100
AcDbEntity
  8
0
  6
Continuous
 62
     7
370
    15
100
AcDbCircle
 10
172.4519002785
 20
463.1195546581
 30
0.0
 40
12.49999999999997
  0
CIRCLE
  5
77
330
1F
100
AcDbEntity
  8
0
  6
Continuous
 62
     7
370
    15
100
AcDbCircle
 10
353.1017688088
 20
567.4178048831
 30
0.0
 40
12.5
  0
LINE
  5
78
330
1F
100
AcDbEntity
  8
0
  6
Continuous
 62
     7
370
    15
100
AcDbLine
 10
339.9259600287
 20
596.9437412139
 30
0.0
 11
349.9259598052
 21
606.9437465783
 31
0.0
  0
LINE
  5
79
330
1F
100
AcDbEntity
  8
0
  6
Continuous
 62
     7
370
    15
100
AcDbLine
 10
349.9259598052
 20
606.9437465783
 30
0.0
 11
384.9259599542
 21
606.9437465783
 31
0.0
  0
LINE
  5
7A
330
1F
100
AcDbEntity
  8
0
  6
Continuous
 62
     7
370
    15
100
AcDbLine
 10
384.9259599542
 20
606.9437465783
 30
0.0
 11
384.9259599542
 21
579.8630765792
 31
0.0
  0
ARC
  5
7B
330
1F
100
AcDbEntity
  8
0
  6
Continuous
 62
     7
370
    15
100
AcDbCircle
 10
314.9259596562
 20
424.9437455055
 30
0.0
 40
170.0
100
AcDbArc
 50
294.3157391712
 51
65.6842608288
  0
LINE
  5
7C
330
1F
100
AcDbEntity
  8
0
  6
Continuous
 62
     7
370
    15
100
AcDbLine
 10
384.9259599542
 20
242.9437390682
 30
0.0
 11
384.9259599542
 21
270.0244090673
 31
0.0
  0
LINE
  5
7D
330
1F
100
AcDbEntity
  8
0
  6
Continuous
 62
     7
370
    15
100
AcDbLine
 10
349.9259598052
 20
242.9437390682
 30
0.0
 11
384.9259599542
 21
242.9437390682
 31
0.0
  0
LINE
  5
7E
330
1F
100
AcDbEntity
  8
0
  6
Continuous
 62
     7
370
    15
100
AcDbLine
 10
339.9259600287
 20
252.9437444326
 30
0.0
 11
349.9259598052
 21
242.9437390682
 31
0.0
  0
LINE
  5
7F
330
1F
100
AcDbEntity
  8
0
  6
Continuous
 62
     7
370
    15
100
AcDbLine
 10
289.9259592836
 20
252.9437444326
 30
0.0
 11
339.9259600287
 21
252.9437444326
 31
0.0
  0
LINE
  5
80
330
1F
100
AcDbEntity
  8
0
  6
Continuous
 62
     7
370
    15
100
AcDbLine
 10
279.9259595072
 20
242.9437390682
 30
0.0
 11
289.9259592836
 21
252.9437444326
 31
0.0
  0
LINE
  5
81
330
1F
100
AcDbEntity
  8
0
  6
Continuous
 62
     7
370
    15
100
AcDbLine
 10
244.9259593581
 20
242.9437390682
 30
0.0
 11
279.9259595072
 21
242.9437390682
 31
0.0
  0
LINE
  5
82
330
1F
100
AcDbEntity
  8
0
  6
Continuous
 62
     7
370
    15
100
AcDbLine
 10
244.9259593581
 20
270.0244090673
 30
0.0
 11
244.9259593581
 21
242.9437390682
 31
0.0
  0
ARC
  5
83
330
1F
100
AcDbEntity
  8
0
  6
Continuous
 62
     7
370
    15
100
AcDbCircle
 10
314.9259596562
 20
424.9437455055
 30
0.0
 40
170.0
100
AcDbArc
 50
114.3157391712
 51
245.6842608288
  0
LINE
  5
84
330
1F
100
AcDbEntity
  8
0
  6
Continuous
 62
     7
370
    15
100
AcDbLine
 10
244.9259593581
 20
579.8630765792
 30
0.0
 11
244.9259593581
 21
606.9437465783
 31
0.0
  0
LINE
  5
85
330
1F
100
AcDbEntity
  8
0
  6
Continuous
 62
     7
370
    15
100
AcDbLine
 10
244.9259593581
 20
606.9437465783
 30
0.0
 11
279.9259595072
 21
606.9437465783
 31
0.0
  0
LINE
  5
86
330
1F
100
AcDbEntity
  8
0
  6
Continuous
 62
     7
370
    15
100
AcDbLine
 10
279.9259595072
 20
606.9437465783
 30
0.0
 11
289.9259592836
 21
596.9437412139
 31
0.0
  0
LINE
  5
87
330
1F
100
AcDbEntity
  8
0
  6
Continuous
 62
     7
370
    15
100
AcDbLine
 10
289.9259592836
 20
596.9437412139
 30
0.0
 11
309.9259597679
 21
596.9437412139
 31
0.0
  0
LINE
  5
88
330
1F
100
AcDbEntity
  8
0
  6
Continuous
 62
     7
370
    15
100
AcDbLine
 10
314.9259596562
 20
593.9437500354
 30
0.0
 11
309.9259597679
 21
596.9437412139
 31
0.0
  0
LINE
  5
89
330
1F
100
AcDbEntity
  8
0
  6
Continuous
 62
     7
370
    15
100
AcDbLine
 10
319.9259595444
 20
596.9437412139
 30
0.0
 11
314.9259596562
 21
593.9437500354
 31
0.0
  0
LINE
  5
8A
330
1F
100
AcDbEntity
  8
0
  6
Continuous
 62
     7
370
    15
100
AcDbLine
 10
319.9259595444
 20
596.9437412139
 30
0.0
 11
339.9259600287
 21
596.9437412139
 31
0.0
  0
CIRCLE
  5
8B
330
1F
100
AcDbEntity
  8
0
  6
Continuous
 62
     7
370
    15
100
AcDbCircle
 10
457.4000190338
 20
463.1195546581
 30
0.0
 40
12.5
  0
CIRCLE
  5
8C
330
1F
100
AcDbEntity
  8
0
  6
Continuous
 62
     7
370
    15
100
AcDbCircle
 10
210.6277094312
 20
529.2419957305
 30
0.0
 40
12.5
  0
CIRCLE
  5
8D
330
1F
100
AcDbEntity
  8
0
  6
Continuous
 62
     7
370
    15
100
AcDbCircle
 10
276.7501505035
 20
567.4178048831
 30
0.0
 40
12.5
  0
CIRCLE
  5
8E
330
1F
100
AcDbEntity
  8
0
  6
Continuous
 62
     7
370
    15
100
AcDbCircle
 10
419.2242098812
 20
320.6454952804
 30
0.0
 40
12.50000000000003
  0
CIRCLE
  5
8F
330
1F
100
AcDbEntity
  8
0
  6
Continuous
 62
     7
370
    15
100
AcDbCircle
 10
276.7501505035
 20
282.4696861278
 30
0.0
 40
12.50000000000002
  0
CIRCLE
  5
90
330
1F
100
AcDbEntity
  8
0
  6
Continuous
 62
     7
370
    15
100
AcDbCircle
 10
210.6277094312
 20
320.6454952804
 30
0.0
 40
12.49999999999999
  0
LINE
  5
91
330
1F
100
AcDbEntity
  8
0
  6
Continuous
 62
     7
370
    15
100
AcDbLine
 10
35.9259455895
 20
376.9437461313
 30
0.0
 11
35.9259455895
 21
482.9437448796
 31
0.0
  0
LINE
  5
92
330
1F
100
AcDbEntity
  8
0
  6
Continuous
 62
     7
370
    15
100
AcDbLine
 10
80.2783131098
 20
376.9437461313
 30
0.0
 11
80.2783131098
 21
482.9437448796
 31
0.0
  0
LINE
  5
93
330
1F
100
AcDbEntity
  8
0
  6
Continuous
 62
     7
370
    15
100
AcDbLine
 10
108.6059569811
 20
366.9437444922
 30
0.0
 11
108.6059569811
 21
492.9437465187
 31
0.0
  0
LINE
  5
94
330
1F
100
AcDbEntity
  8
0
  6
Continuous
 62
     7
370
    15
100
AcDbLine
 10
108.6059569811
 20
366.9437444922
 30
0.0
 11
99.2100297903
 21
366.9437444922
 31
0.0
  0
SPLINE
  5
95
330
1F
100
AcDbEntity
  8
0
  6
Continuous
 62
     7
370
    15
100
AcDbSpline
210
0.0
220
0.0
230
1.0
 70
     8
 71
     3
 72
    32
 73
    28
 74
     0
 42
0.00000001
 43
0.00000001
 12
1.0
 22
0.0
 32
0.0
 13
1.0
 23
0.0
 33
0.0
 40
0.0
 40
0.0
 40
0.0
 40
0.0
 40
0.0156249999999987
 40
0.0156249999999987
 40
0.0312499999999974
 40
0.0312499999999974
 40
0.0624999999999968
 40
0.0624999999999968
 40
0.0937499999999962
 40
0.0937499999999962
 40
0.1249999999999955
 40
0.1249999999999955
 40
0.1874999999999948
 40
0.1874999999999948
 40
0.2499999999999941
 40
0.2499999999999941
 40
0.3749999999999949
 40
0.3749999999999949
 40
0.4999999999999959
 40
0.4999999999999959
 40
0.6249999999999968
 40
0.6249999999999968
 40
0.7499999999999977
 40
0.7499999999999977
 40
0.8749999999999989
 40
0.8749999999999989
 40
1.0
 40
1.0
 40
1.0
 40
1.0
 10
80.2783096115314
 20
376.9437455054543
 30
0.0
 10
80.27830961153143
 20
376.8107064166069
 30
0.0
 10
80.29374199092356
 20
376.6806499699782
 30
0.0
 10
80.351195763987
 20
376.4256795715951
 30
0.0
 10
80.39378469291469
 20
376.299578074611
 30
0.0
 10
80.55024864694754
 20
375.9380419658459
 30
0.0
 10
80.69037669273094
 20
375.7184967778891
 30
0.0
 10
81.0084431243339
 20
375.3023247035472
 30
0.0
 10
81.18292167629932
 20
375.1109122993016
 30
0.0
 10
81.54689842900031
 20
374.7475433275328
 30
0.0
 10
81.73694901537316
 20
374.5755429142956
 30
0.0
 10
82.32180212518078
 20
374.077887623517
 30
0.0
 10
82.73224842202865
 20
373.7692088219143
 30
0.0
 10
83.56412647069384
 20
373.1813907519588
 30
0.0
 10
83.9851443341866
 20
372.9032474403521
 30
0.0
 10
85.25437006719235
 20
372.0996556156714
 30
0.0
 10
86.10846959678678
 20
371.6044708238559
 30
0.0
 10
87.8172628437707
 20
370.6699258497513
 30
0.0
 10
88.6724663146328
 20
370.2314776414652
 30
0.0
 10
90.38125678930156
 20
369.4115962882238
 30
0.0
 10
91.23843020369063
 20
369.029121470344
 30
0.0
 10
92.91690108233507
 20
368.346047084632
 30
0.0
 10
93.74172552378602
 20
368.0435059959642
 30
0.0
 10
95.36301093701216
 20
367.5320892633212
 30
0.0
 10
96.15945826728867
 20
367.322945213844
 30
0.0
 10
97.7250717037973
 20
367.0275909869676
 30
0.0
 10
98.4826214283725
 20
366.9437455054543
 30
0.0
 10
99.21002711895561
 20
366.9437455054543
 30
0.0
  0
SPLINE
  5
96
330
1F
100
AcDbEntity
  8
0
  6
Continuous
 62
     7
370
    15
100
AcDbSpline
210
0.0
220
0.0
230
1.0
 70
     8
 71
     3
 72
    34
 73
    30
 74
     0
 42
0.00000001
 43
0.00000001
 12
1.0
 22
0.0
 32
0.0
 13
1.0
 23
0.0
 33
0.0
 40
0.0
 40
0.0
 40
0.0
 40
0.0
 40
0.1250000000000023
 40
0.1250000000000023
 40
0.2500000000000046
 40
0.2500000000000046
 40
0.3125000000000044
 40
0.3125000000000044
 40
0.3750000000000041
 40
0.3750000000000041
 40
0.5000000000000044
 40
0.5000000000000044
 40
0.6250000000000048
 40
0.6250000000000048
 40
0.6875000000000047
 40
0.6875000000000047
 40
0.7500000000000046
 40
0.7500000000000046
 40
0.8125000000000046
 40
0.8125000000000046
 40
0.8750000000000044
 40
0.8750000000000044
 40
0.9062500000000033
 40
0.9062500000000033
 40
0.9375000000000023
 40
0.9375000000000023
 40
0.9687500000000012
 40
0.9687500000000012
 40
1.0
 40
1.0
 40
1.0
 40
1.0
 10
99.21002711895561
 20
492.9437455054543
 30
0.0
 10
98.48127454213346
 20
492.9437455054543
 30
0.0
 10
97.72998543785653
 20
492.860123789275
 30
0.0
 10
96.18221683556871
 20
492.5695299778821
 30
0.0
 10
95.38575173248762
 20
492.3620679385941
 30
0.0
 10
94.15683968925528
 20
491.9751753134308
 30
0.0
 10
93.74213898507399
 20
491.8336105283122
 30
0.0
 10
92.91225961641175
 20
491.5312539437327
 30
0.0
 10
92.49572426953722
 20
491.3700428786117
 30
0.0
 10
91.24108762818841
 20
490.8594469292373
 30
0.0
 10
90.39789055876984
 20
490.4833974175967
 30
0.0
 10
88.69808757431835
 20
489.6687729880858
 30
0.0
 10
87.84138704589745
 20
489.2303600849884
 30
0.0
 10
86.54865781088402
 20
488.5239542561265
 30
0.0
 10
86.11608142809376
 20
488.2799949637284
 30
0.0
 10
85.25533042797495
 20
487.7766867997146
 30
0.0
 10
84.8264778391288
 20
487.517067460875
 30
0.0
 10
83.9746370432417
 20
486.9774425758313
 30
0.0
 10
83.55135561400293
 20
486.6974630264739
 30
0.0
 10
82.72058142022101
 20
486.1096397110659
 30
0.0
 10
82.31094295916682
 20
485.8011326113833
 30
0.0
 10
81.72635033796058
 20
485.3025289220951
 30
0.0
 10
81.53669470328548
 20
485.1303721141755
 30
0.0
 10
81.17432140794872
 20
484.7673492071692
 30
0.0
 10
81.001336793286
 20
484.5767641760732
 30
0.0
 10
80.68609078169226
 20
484.1624573634319
 30
0.0
 10
80.54653322928202
 20
483.9427288816442
 30
0.0
 10
80.33989412118059
 20
483.4614751894563
 30
0.0
 10
80.27830961153148
 20
483.2080997013672
 30
0.0
 10
80.2783096115314
 20
482.9437455054543
 30
0.0
  0
LINE
  5
97
330
1F
100
AcDbEntity
  8
0
  6
Continuous
 62
     7
370
    15
100
AcDbLine
 10
99.2100297903
 20
492.9437465187
 30
0.0
 11
108.6059569811
 21
492.9437465187
 31
0.0
  0
LINE
  5
98
330
1F
100
AcDbEntity
  8
0
  6
Continuous
 62
     7
370
    15
100
AcDbLine
 10
99.2100297903
 20
366.9437444922
 30
0.0
 11
95.8770125603
 21
366.9437444922
 31
0.0
  0
SPLINE
  5
99
330
1F
100
AcDbEntity
  8
0
  6
Continuous
 62
     7
370
    15
100
AcDbSpline
210
0.0
220
0.0
230
1.0
 70
     8
 71
     3
 72
    24
 73
    20
 74
     0
 42
0.00000001
 43
0.00000001
 12
1.0
 22
0.0
 32
0.0
 13
1.0
 23
0.0
 33
0.0
 40
0.0
 40
0.0
 40
0.0
 40
0.0
 40
0.1250000000000018
 40
0.1250000000000018
 40
0.2500000000000036
 40
0.2500000000000036
 40
0.3125000000000046
 40
0.3125000000000046
 40
0.3750000000000057
 40
0.3750000000000057
 40
0.5000000000000046
 40
0.5000000000000046
 40
0.7500000000000031
 40
0.7500000000000031
 40
0.8125000000000029
 40
0.8125000000000029
 40
0.8750000000000026
 40
0.8750000000000026
 40
1.0
 40
1.0
 40
1.0
 40
1.0
 10
73.60595965616746
 20
370.9437455054543
 30
0.0
 10
74.62949019412918
 20
370.9437455054542
 30
0.0
 10
75.6441106913875
 20
370.8828203534619
 30
0.0
 10
77.65755577751524
 20
370.6587304156808
 30
0.0
 10
78.65643511906953
 20
370.4961631136911
 30
0.0
 10
80.14535747840726
 20
370.2025186483758
 30
0.0
 10
80.64109370760502
 20
370.0961452794573
 30
0.0
 10
81.62055218549868
 20
369.873623984307
 30
0.0
 10
82.10524377631882
 20
369.7573213628897
 30
0.0
 10
83.54599474158562
 20
369.3998583481008
 30
0.0
 10
84.4888174326924
 20
369.1503388574505
 30
0.0
 10
87.27473896623198
 20
368.4115787339902
 30
0.0
 10
89.07573402749405
 20
367.9310279366555
 30
0.0
 10
91.27706745249728
 20
367.4711630123549
 30
0.0
 10
91.71572215757018
 20
367.3861822937137
 30
0.0
 10
92.57949530814996
 20
367.2357903833352
 30
0.0
 10
93.00546575614835
 20
367.1701660208446
 30
0.0
 10
94.2659021488248
 20
367.0073688175445
 30
0.0
 10
95.08291893801186
 20
366.9437455054543
 30
0.0
 10
95.87701710748753
 20
366.9437455054543
 30
0.0
  0
LINE
  5
9A
330
1F
100
AcDbEntity
  8
0
  6
Continuous
 62
     7
370
    15
100
AcDbLine
 10
47.9159563278
 20
370.9437451478
 30
0.0
 11
73.6059605574
 21
370.9437451478
 31
0.0
  0
LINE
  5
9B
330
1F
100
AcDbEntity
  8
0
  6
Continuous
 62
     7
370
    15
100
AcDbLine
 10
47.9159563278
 20
366.9437444922
 30
0.0
 11
35.9259455895
 21
366.9437444922
 31
0.0
  0
LINE
  5
9C
330
1F
100
AcDbEntity
  8
0
  6
Continuous
 62
     7
370
    15
100
AcDbLine
 10
35.9259455895
 20
366.9437444922
 30
0.0
 11
35.9259455895
 21
376.9437461313
 31
0.0
  0
SPLINE
  5
9D
330
1F
100
AcDbEntity
  8
0
  6
Continuous
 62
     7
370
    15
100
AcDbSpline
210
0.0
220
0.0
230
1.0
 70
     8
 71
     3
 72
    24
 73
    20
 74
     0
 42
0.00000001
 43
0.00000001
 12
1.0
 22
0.0
 32
0.0
 13
1.0
 23
0.0
 33
0.0
 40
0.0
 40
0.0
 40
0.0
 40
0.0
 40
0.1250000000000028
 40
0.1250000000000028
 40
0.2500000000000056
 40
0.2500000000000056
 40
0.5000000000000077
 40
0.5000000000000077
 40
0.5625000000000069
 40
0.5625000000000069
 40
0.6250000000000062
 40
0.6250000000000062
 40
0.7500000000000041
 40
0.7500000000000041
 40
0.875000000000002
 40
0.875000000000002
 40
0.937500000000001
 40
0.937500000000001
 40
1.0
 40
1.0
 40
1.0
 40
1.0
 10
95.87701710748753
 20
492.9437455054543
 30
0.0
 10
95.08888283820515
 20
492.9437455054543
 30
0.0
 10
94.27186524288022
 20
492.8808907552182
 30
0.0
 10
92.5794530519792
 20
492.6623030741436
 30
0.0
 10
91.719487994229
 20
492.5085654130601
 30
0.0
 10
89.09925392474699
 20
491.9617445447078
 30
0.0
 10
87.29732776627277
 20
491.4819095044151
 30
0.0
 10
84.95562187131702
 20
490.8609357989345
 30
0.0
 10
84.48179661979697
 20
490.7354660681287
 30
0.0
 10
83.53066094341233
 20
490.4876708869622
 30
0.0
 10
83.05308493118469
 20
490.3652702631002
 30
0.0
 10
81.61344435492026
 20
490.0082867481151
 30
0.0
 10
80.6445161814033
 20
489.7837461960095
 30
0.0
 10
78.68245956683867
 20
489.3961352251486
 30
0.0
 10
77.68929210748662
 20
489.2333118772601
 30
0.0
 10
76.17611984997238
 20
489.0633941631006
 30
0.0
 10
75.66781999206565
 20
489.0191419668761
 30
0.0
 10
74.64259651679758
 20
488.9592882504382
 30
0.0
 10
74.12303095280734
 20
488.9437455054543
 30
0.0
 10
73.6059596561674
 20
488.9437455054544
 30
0.0
  0
LINE
  5
9E
330
1F
100
AcDbEntity
  8
0
  6
Continuous
 62
     7
370
    15
100
AcDbLine
 10
95.8770125603
 20
492.9437465187
 30
0.0
 11
99.2100297903
 21
492.9437465187
 31
0.0
  0
LINE
  5
9F
330
1F
100
AcDbEntity
  8
0
  6
Continuous
 62
     7
370
    15
100
AcDbLine
 10
35.9259455895
 20
492.9437465187
 30
0.0
 11
47.9159563278
 21
492.9437465187
 31
0.0
  0
LINE
  5
A0
330
1F
100
AcDbEntity
  8
0
  6
Continuous
 62
     7
370
    15
100
AcDbLine
 10
73.6059605574
 20
488.9437458631
 30
0.0
 11
47.9159563278
 21
488.9437458631
 31
0.0
  0
LINE
  5
A1
330
1F
100
AcDbEntity
  8
0
  6
Continuous
 62
     7
370
    15
100
AcDbLine
 10
35.9259455895
 20
482.9437448796
 30
0.0
 11
35.9259455895
 21
492.9437465187
 31
0.0
  0
LINE
  5
A2
330
1F
100
AcDbEntity
  8
0
  6
Continuous
 62
     7
370
    15
100
AcDbLine
 10
73.6059605574
 20
355.9437445518
 30
0.0
 11
108.6059569811
 21
355.9437445518
 31
0.0
  0
LINE
  5
A3
330
1F
100
AcDbEntity
  8
0
  6
Continuous
 62
     7
370
    15
100
AcDbLine
 10
108.6059569811
 20
366.9437444922
 30
0.0
 11
108.6059569811
 21
355.9437445518
 31
0.0
  0
LINE
  5
A4
330
1F
100
AcDbEntity
  8
0
  6
Continuous
 62
     7
370
    15
100
AcDbLine
 10
47.9159563278
 20
355.9437445518
 30
0.0
 11
73.6059605574
 21
355.9437445518
 31
0.0
  0
LINE
  5
A5
330
1F
100
AcDbEntity
  8
0
  6
Continuous
 62
     7
370
    15
100
AcDbLine
 10
47.9159563278
 20
370.9437451478
 30
0.0
 11
47.9159563278
 21
355.9437445518
 31
0.0
  0
LINE
  5
A6
330
1F
100
AcDbEntity
  8
0
  6
Continuous
 62
     7
370
    15
100
AcDbLine
 10
47.9159563278
 20
503.9437464591
 30
0.0
 11
73.6059605574
 21
503.9437464591
 31
0.0
  0
LINE
  5
A7
330
1F
100
AcDbEntity
  8
0
  6
Continuous
 62
     7
370
    15
100
AcDbLine
 10
47.9159563278
 20
503.9437464591
 30
0.0
 11
47.9159563278
 21
488.9437458631
 31
0.0
  0
LINE
  5
A8
330
1F
100
AcDbEntity
  8
0
  6
Continuous
 62
     7
370
    15
100
AcDbLine
 10
73.6059605574
 20
503.9437464591
 30
0.0
 11
108.6059569811
 21
503.9437464591
 31
0.0
  0
LINE
  5
A9
330
1F
100
AcDbEntity
  8
0
  6
Continuous
 62
     7
370
    15
100
AcDbLine
 10
108.6059569811
 20
503.9437464591
 30
0.0
 11
108.6059569811
 21
492.9437465187
 31
0.0
  0
LINE
  5
AA
330
1F
100
AcDbEntity
  8
0
  6
Continuous
 62
     7
370
    15
100
AcDbLine
 10
48.9659517502
 20
355.9437445518
 30
0.0
 11
48.9659517502
 21
351.9437438961
 31
0.0
  0
LINE
  5
AB
330
1F
100
AcDbEntity
  8
0
  6
Continuous
 62
     7
370
    15
100
AcDbLine
 10
53.9659469818
 20
355.9437445518
 30
0.0
 11
53.9659469818
 21
351.9437438961
 31
0.0
  0
LINE
  5
AC
330
1F
100
AcDbEntity
  8
0
  6
Continuous
 62
     7
370
    15
100
AcDbLine
 10
48.9659517502
 20
351.9437438961
 30
0.0
 11
53.9659469818
 21
351.9437438961
 31
0.0
  0
LINE
  5
AD
330
1F
100
AcDbEntity
  8
0
  6
Continuous
 62
     7
370
    15
100
AcDbLine
 10
58.9659720158
 20
355.9437445518
 30
0.0
 11
58.9659720158
 21
351.9437438961
 31
0.0
  0
LINE
  5
AE
330
1F
100
AcDbEntity
  8
0
  6
Continuous
 62
     7
370
    15
100
AcDbLine
 10
53.9659469818
 20
351.9437438961
 30
0.0
 11
58.9659720158
 21
351.9437438961
 31
0.0
  0
LINE
  5
AF
330
1F
100
AcDbEntity
  8
0
  6
Continuous
 62
     7
370
    15
100
AcDbLine
 10
48.9659517502
 20
507.9437471148
 30
0.0
 11
48.9659517502
 21
503.9437464591
 31
0.0
  0
LINE
  5
B0
330
1F
100
AcDbEntity
  8
0
  6
Continuous
 62
     7
370
    15
100
AcDbLine
 10
48.9659517502
 20
507.9437471148
 30
0.0
 11
53.9659469818
 21
507.9437471148
 31
0.0
  0
LINE
  5
B1
330
1F
100
AcDbEntity
  8
0
  6
Continuous
 62
     7
370
    15
100
AcDbLine
 10
53.9659469818
 20
507.9437471148
 30
0.0
 11
53.9659469818
 21
503.9437464591
 31
0.0
  0
LINE
  5
B2
330
1F
100
AcDbEntity
  8
0
  6
Continuous
 62
     7
370
    15
100
AcDbLine
 10
53.9659469818
 20
507.9437471148
 30
0.0
 11
58.9659720158
 21
507.9437471148
 31
0.0
  0
LINE
  5
B3
330
1F
100
AcDbEntity
  8
0
  6
Continuous
 62
     7
370
    15
100
AcDbLine
 10
58.9659720158
 20
507.9437471148
 30
0.0
 11
58.9659720158
 21
503.9437464591
 31
0.0
  0
LINE
  5
B4
330
1F
100
AcDbEntity
  8
0
  6
Continuous
 62
     7
370
    15
100
AcDbLine
 10
88.4741454815
 20
355.9437445518
 30
0.0
 11
88.4741454815
 21
351.9437438961
 31
0.0
  0
LINE
  5
B5
330
1F
100
AcDbEntity
  8
0
  6
Continuous
 62
     7
370
    15
100
AcDbLine
 10
93.9207732176
 20
355.9437445518
 30
0.0
 11
93.9207732176
 21
351.9437438961
 31
0.0
  0
LINE
  5
B6
330
1F
100
AcDbEntity
  8
0
  6
Continuous
 62
     7
370
    15
100
AcDbLine
 10
88.4741454815
 20
351.9437438961
 30
0.0
 11
93.9207732176
 21
351.9437438961
 31
0.0
  0
LINE
  5
B7
330
1F
100
AcDbEntity
  8
0
  6
Continuous
 62
     7
370
    15
100
AcDbLine
 10
98.3025937771
 20
355.9437445518
 30
0.0
 11
98.3025937771
 21
351.9437438961
 31
0.0
  0
LINE
  5
B8
330
1F
100
AcDbEntity
  8
0
  6
Continuous
 62
     7
370
    15
100
AcDbLine
 10
93.9207732176
 20
351.9437438961
 30
0.0
 11
98.3025937771
 21
351.9437438961
 31
0.0
  0
LINE
  5
B9
330
1F
100
AcDbEntity
  8
0
  6
Continuous
 62
     7
370
    15
100
AcDbLine
 10
88.4741454815
 20
507.9437471148
 30
0.0
 11
88.4741454815
 21
503.9437464591
 31
0.0
  0
LINE
  5
BA
330
1F
100
AcDbEntity
  8
0
  6
Continuous
 62
     7
370
    15
100
AcDbLine
 10
88.4741454815
 20
507.9437471148
 30
0.0
 11
93.9207732176
 21
507.9437471148
 31
0.0
  0
LINE
  5
BB
330
1F
100
AcDbEntity
  8
0
  6
Continuous
 62
     7
370
    15
100
AcDbLine
 10
93.9207732176
 20
507.9437471148
 30
0.0
 11
93.9207732176
 21
503.9437464591
 31
0.0
  0
LINE
  5
BC
330
1F
100
AcDbEntity
  8
0
  6
Continuous
 62
     7
370
    15
100
AcDbLine
 10
93.9207732176
 20
507.9437471148
 30
0.0
 11
98.3025937771
 21
507.9437471148
 31
0.0
  0
LINE
  5
BD
330
1F
100
AcDbEntity
  8
0
  6
Continuous
 62
     7
370
    15
100
AcDbLine
 10
98.3025937771
 20
507.9437471148
 30
0.0
 11
98.3025937771
 21
503.9437464591
 31
0.0
  0
LINE
  5
BE
330
1F
100
AcDbEntity
  8
0
  6
Continuous
 62
     7
370
    15
100
AcDbLine
 10
484.4657837843
 20
437.4437453378
 30
0.0
 11
497.6006805395
 21
437.4437453378
 31
0.0
  0
ELLIPSE
  5
BF
330
1F
100
AcDbEntity
  8
0
  6
Continuous
 62
     7
370
    15
100
AcDbEllipse
 10
521.605854503
 20
429.9437455055
 30
0.0
 11
0.0
 21
62.5
 31
0.0
210
0.0
220
0.0
230
1.0
 40
0.3868783175
 41
1.45050644440011
 42
1.691086209189683
  0
LINE
  5
C0
330
1F
100
AcDbEntity
  8
0
  6
Continuous
 62
     7
370
    15
100
AcDbLine
 10
484.9075734114
 20
422.4437456731
 30
0.0
 11
497.6006805395
 21
422.4437456731
 31
0.0
  0
LINE
  5
C1
330
1F
100
AcDbEntity
  8
0
  6
Continuous
 62
     7
370
    15
100
AcDbLine
 10
144.9443459009
 20
422.4437456731
 30
0.0
 11
132.2512387728
 21
422.4437456731
 31
0.0
  0
ELLIPSE
  5
C2
330
1F
100
AcDbEntity
  8
0
  6
Continuous
 62
     7
370
    15
100
AcDbEllipse
 10
108.2460648094
 20
429.9437455055
 30
0.0
 11
0.0
 21
62.5
 31
0.0
210
0.0
220
0.0
230
1.0
 40
0.3868783175
 41
4.592099097989909
 42
4.832678862779483
  0
LINE
  5
C3
330
1F
100
AcDbEntity
  8
0
  6
Continuous
 62
     7
370
    15
100
AcDbLine
 10
145.386135528
 20
437.4437453378
 30
0.0
 11
132.2512387728
 21
437.4437453378
 31
0.0
  0
LINE
  5
C4
330
1F
100
AcDbEntity
  8
0
  6
Continuous
 62
     7
370
    15
100
AcDbLine
 10
87.4093234038
 20
355.9437445518
 30
0.0
 11
87.4093234038
 21
351.9437438961
 31
0.0
  0
LINE
  5
C5
330
1F
100
AcDbEntity
  8
0
  6
Continuous
 62
     7
370
    15
100
AcDbLine
 10
87.4093234038
 20
351.9437438961
 30
0.0
 11
88.4741454815
 21
351.9437438961
 31
0.0
  0
LINE
  5
C6
330
1F
100
AcDbEntity
  8
0
  6
Continuous
 62
     7
370
    15
100
AcDbLine
 10
87.4093234038
 20
507.9437471148
 30
0.0
 11
87.4093234038
 21
503.9437464591
 31
0.0
  0
LINE
  5
C7
330
1F
100
AcDbEntity
  8
0
  6
Continuous
 62
     7
370
    15
100
AcDbLine
 10
87.4093234038
 20
507.9437471148
 30
0.0
 11
88.4741454815
 21
507.9437471148
 31
0.0
  0
LINE
  5
C8
330
1F
100
AcDbEntity
  8
0
  6
Continuous
 62
     7
370
    15
100
AcDbLine
 10
64.4259660935
 20
607.9437486049
 30
0.0
 11
84.4259619211
 21
607.9437486049
 31
0.0
  0
LINE
  5
C9
330
1F
100
AcDbEntity
  8
0
  6
Continuous
 62
     7
370
    15
100
AcDbLine
 10
114.9259566759
 20
492.9437465187
 30
0.0
 11
114.9259566759
 21
366.9437444922
 31
0.0
  0
LINE
  5
CA
330
1F
100
AcDbEntity
  8
0
  6
Continuous
 62
     7
370
    15
100
AcDbLine
 10
108.6059569811
 20
492.9437465187
 30
0.0
 11
114.9259566759
 21
492.9437465187
 31
0.0
  0
LINE
  5
CB
330
1F
100
AcDbEntity
  8
0
  6
Continuous
 62
     7
370
    15
100
AcDbLine
 10
114.9259566759
 20
366.9437444922
 30
0.0
 11
108.6059569811
 21
366.9437444922
 31
0.0
  0
LINE
  5
CC
330
1F
100
AcDbEntity
  8
0
  6
Continuous
 62
     7
370
    15
100
AcDbLine
 10
132.4259548878
 20
492.4437455055
 30
0.0
 11
132.4259548878
 21
437.4437453378
 31
0.0
  0
LINE
  5
CD
330
1F
100
AcDbEntity
  8
0
  6
Continuous
 62
     7
370
    15
100
AcDbLine
 10
132.4259548878
 20
422.4437456731
 30
0.0
 11
132.4259548878
 21
367.4437455055
 31
0.0
  0
LINE
  5
CE
330
1F
100
AcDbEntity
  8
0
  6
Continuous
 62
     7
370
    15
100
AcDbLine
 10
541.9259577488
 20
492.4437455055
 30
0.0
 11
541.9259577488
 21
367.4437455055
 31
0.0
  0
LINE
  5
CF
330
1F
100
AcDbEntity
  8
0
  6
Continuous
 62
     7
370
    15
100
AcDbLine
 10
497.4259644245
 20
492.4437455055
 30
0.0
 11
497.4259644245
 21
437.4437453378
 31
0.0
  0
LINE
  5
D0
330
1F
100
AcDbEntity
  8
0
  6
Continuous
 62
     7
370
    15
100
AcDbLine
 10
497.4259644245
 20
422.4437456731
 30
0.0
 11
497.4259644245
 21
367.4437455055
 31
0.0
  0
SPLINE
  5
D1
330
1F
100
AcDbEntity
  8
0
  6
Continuous
 62
     7
370
    15
100
AcDbSpline
210
0.0
220
0.0
230
1.0
 70
     8
 71
     3
 72
     9
 73
     5
 74
     0
 42
0.00000001
 43
0.00000001
 12
1.0
 22
0.0
 32
0.0
 13
1.0
 23
0.0
 33
0.0
 40
0.0
 40
0.0
 40
0.0
 40
0.0
 40
0.6098942331073381
 40
1.0
 40
1.0
 40
1.0
 40
1.0
 10
146.7793195938353
 20
400.0098216500299
 30
0.0
 10
143.8646737378935
 20
398.2779303956553
 30
0.0
 10
139.0857371654128
 20
395.4382720412043
 30
0.0
 10
134.2948914353762
 20
392.6187594236946
 30
0.0
 10
132.4259548877959
 20
391.5188512917774
 30
0.0
  0
SPLINE
  5
D2
330
1F
100
AcDbEntity
  8
0
  6
Continuous
 62
     7
370
    15
100
AcDbSpline
210
0.0
220
0.0
230
1.0
 70
     8
 71
     3
 72
    10
 73
     6
 74
     0
 42
0.00000001
 43
0.00000001
 12
1.0
 22
0.0
 32
0.0
 13
1.0
 23
0.0
 33
0.0
 40
0.0
 40
0.0
 40
0.0
 40
0.0
 40
0.5
 40
0.5
 40
1.0
 40
1.0
 40
1.0
 40
1.0
 10
132.4259596561675
 20
401.1137724966762
 30
0.0
 10
132.5948062322487
 20
401.5462704406521
 30
0.0
 10
132.6856772494555
 20
401.9643595048929
 30
0.0
 10
132.6858571722242
 20
402.7676157322229
 30
0.0
 10
132.5948227070589
 20
403.1301590498329
 30
0.0
 10
132.4259596561675
 20
403.4568590082997
 30
0.0
  0
SPLINE
  5
D3
330
1F
100
AcDbEntity
  8
0
  6
Continuous
 62
     7
370
    15
100
AcDbSpline
210
0.0
220
0.0
230
1.0
 70
     8
 71
     3
 72
     8
 73
     4
 74
     0
 42
0.00000001
 43
0.00000001
 12
1.0
 22
0.0
 32
0.0
 13
1.0
 23
0.0
 33
0.0
 40
0.0
 40
0.0
 40
0.0
 40
0.0
 40
1.0
 40
1.0
 40
1.0
 40
1.0
 10
132.4259596561675
 20
468.3686397798693
 30
0.0
 10
137.7168464304547
 20
465.2563005600523
 30
0.0
 10
143.0023770103942
 20
462.1346431234331
 30
0.0
 10
148.2742245454226
 20
458.9911206020095
 30
0.0
  0
LINE
  5
D4
330
1F
100
AcDbEntity
  8
0
  6
Continuous
 62
     7
370
    15
100
AcDbLine
 10
148.274218986
 20
458.9911210504
 30
0.0
 11
148.274218986
 21
458.5175323453
 31
0.0
  0
SPLINE
  5
D5
330
1F
100
AcDbEntity
  8
0
  6
Continuous
 62
     7
370
    15
100
AcDbSpline
210
0.0
220
0.0
230
1.0
 70
     8
 71
     3
 72
    10
 73
     6
 74
     0
 42
0.00000001
 43
0.00000001
 12
1.0
 22
0.0
 32
0.0
 13
1.0
 23
0.0
 33
0.0
 40
0.0
 40
0.0
 40
0.0
 40
0.0
 40
0.5
 40
0.5
 40
1.0
 40
1.0
 40
1.0
 40
1.0
 10
132.4259596561675
 20
456.4306320026085
 30
0.0
 10
132.5948062322487
 20
456.7573000872001
 30
0.0
 10
132.6856772494555
 20
457.1187446490075
 30
0.0
 10
132.6858571722242
 20
457.9218885362062
 30
0.0
 10
132.5948227070589
 20
458.3411783702795
 30
0.0
 10
132.4259596561675
 20
458.773718514232
 30
0.0
  0
SPLINE
  5
D6
330
1F
100
AcDbEntity
  8
0
  6
Continuous
 62
     7
370
    15
100
AcDbSpline
210
0.0
220
0.0
230
1.0
 70
     8
 71
     3
 72
     9
 73
     5
 74
     0
 42
0.00000001
 43
0.00000001
 12
1.0
 22
0.0
 32
0.0
 13
1.0
 23
0.0
 33
0.0
 40
0.0
 40
0.0
 40
0.0
 40
0.0
 40
0.9063212330663752
 40
1.0
 40
1.0
 40
1.0
 40
1.0
 10
497.425964424539
 20
391.5188512917774
 30
0.0
 10
493.0848730961567
 20
394.0756570228375
 30
0.0
 10
488.2950798418433
 20
396.8967381558587
 30
0.0
 10
483.5188943936792
 20
399.7407631181894
 30
0.0
 10
483.0714672302489
 20
400.0071878697889
 30
0.0
  0
SPLINE
  5
D7
330
1F
100
AcDbEntity
  8
0
  6
Continuous
 62
     7
370
    15
100
AcDbSpline
210
0.0
220
0.0
230
1.0
 70
     8
 71
     3
 72
    10
 73
     6
 74
     0
 42
0.00000001
 43
0.00000001
 12
1.0
 22
0.0
 32
0.0
 13
1.0
 23
0.0
 33
0.0
 40
0.0
 40
0.0
 40
0.0
 40
0.0
 40
0.5
 40
0.5
 40
1.0
 40
1.0
 40
1.0
 40
1.0
 10
497.4259596561674
 20
401.1137724966762
 30
0.0
 10
497.2571130800862
 20
401.5462704406521
 30
0.0
 10
497.1662420628795
 20
401.9643595048929
 30
0.0
 10
497.1660621401107
 20
402.7676157322229
 30
0.0
 10
497.257096605276
 20
403.1301590498329
 30
0.0
 10
497.4259596561674
 20
403.4568590082997
 30
0.0
  0
LINE
  5
D8
330
1F
100
AcDbEntity
  8
0
  6
Continuous
 62
     7
370
    15
100
AcDbLine
 10
481.5777003264
 20
458.5175323453
 30
0.0
 11
481.5777003264
 21
458.9911210504
 31
0.0
  0
SPLINE
  5
D9
330
1F
100
AcDbEntity
  8
0
  6
Continuous
 62
     7
370
    15
100
AcDbSpline
210
0.0
220
0.0
230
1.0
 70
     8
 71
     3
 72
     8
 73
     4
 74
     0
 42
0.00000001
 43
0.00000001
 12
1.0
 22
0.0
 32
0.0
 13
1.0
 23
0.0
 33
0.0
 40
0.0
 40
0.0
 40
0.0
 40
0.0
 40
1.0
 40
1.0
 40
1.0
 40
1.0
 10
481.5776947669123
 20
458.9911206020095
 30
0.0
 10
486.8498190555928
 20
462.1348081474275
 30
0.0
 10
492.13521248897
 20
465.2563826832652
 30
0.0
 10
497.4259596561674
 20
468.3686397798693
 30
0.0
  0
SPLINE
  5
DA
330
1F
100
AcDbEntity
  8
0
  6
Continuous
 62
     7
370
    15
100
AcDbSpline
210
0.0
220
0.0
230
1.0
 70
     8
 71
     3
 72
    10
 73
     6
 74
     0
 42
0.00000001
 43
0.00000001
 12
1.0
 22
0.0
 32
0.0
 13
1.0
 23
0.0
 33
0.0
 40
0.0
 40
0.0
 40
0.0
 40
0.0
 40
0.5
 40
0.5
 40
1.0
 40
1.0
 40
1.0
 40
1.0
 10
497.4259596561674
 20
456.4306320026085
 30
0.0
 10
497.2571130800862
 20
456.7573000872001
 30
0.0
 10
497.1662420628795
 20
457.1187446490075
 30
0.0
 10
497.1660621401107
 20
457.9218885362062
 30
0.0
 10
497.257096605276
 20
458.3411783702795
 30
0.0
 10
497.4259596561674
 20
458.773718514232
 30
0.0
  0
LINE
  5
DB
330
1F
100
AcDbEntity
  8
0
  6
Continuous
 62
     7
370
    15
100
AcDbLine
 10
34.9259584641
 20
429.9437455055
 30
0.0
 11
34.9259584641
 21
466.443744969
 31
0.0
  0
LINE
  5
DC
330
1F
100
AcDbEntity
  8
0
  6
Continuous
 62
     7
370
    15
100
AcDbLine
 10
34.9259584641
 20
393.4437460419
 30
0.0
 11
34.9259584641
 21
429.9437455055
 31
0.0
  0
LINE
  5
DD
330
1F
100
AcDbEntity
  8
0
  6
Continuous
 62
     7
370
    15
100
AcDbLine
 10
114.9259566759
 20
366.1842546579
 30
0.0
 11
114.9259566759
 21
366.9437444922
 31
0.0
  0
LINE
  5
DE
330
1F
100
AcDbEntity
  8
0
  6
Continuous
 62
     7
370
    15
100
AcDbLine
 10
35.9259455895
 20
366.1842546579
 30
0.0
 11
35.9259455895
 21
366.9437444922
 31
0.0
  0
LINE
  5
DF
330
1F
100
AcDbEntity
  8
0
  6
Continuous
 62
     7
370
    15
100
AcDbLine
 10
114.9259566759
 20
492.9437465187
 30
0.0
 11
114.9259566759
 21
493.703236353
 31
0.0
  0
LINE
  5
E0
330
1F
100
AcDbEntity
  8
0
  6
Continuous
 62
     7
370
    15
100
AcDbLine
 10
35.9259455895
 20
492.9437465187
 30
0.0
 11
35.9259455895
 21
493.703236353
 31
0.0
  0
LINE
  5
E1
330
1F
100
AcDbEntity
  8
0
  6
Continuous
 62
     7
370
    15
100
AcDbLine
 10
148.274218986
 20
458.9911210504
 30
0.0
 11
148.3703314757
 21
458.9911210504
 31
0.0
  0
LINE
  5
E2
330
1F
100
AcDbEntity
  8
0
  6
Continuous
 62
     7
370
    15
100
AcDbLine
 10
160.6533437466
 20
458.9911210504
 30
0.0
 11
184.2504649853
 21
458.9911210504
 31
0.0
  0
LINE
  5
E3
330
1F
100
AcDbEntity
  8
0
  6
Continuous
 62
     7
370
    15
100
AcDbLine
 10
445.601454327
 20
458.9911210504
 30
0.0
 11
469.1985755657
 21
458.9911210504
 31
0.0
  0
LINE
  5
E4
330
1F
100
AcDbEntity
  8
0
  6
Continuous
 62
     7
370
    15
100
AcDbLine
 10
481.4815878367
 20
458.9911210504
 30
0.0
 11
481.5777003264
 21
458.9911210504
 31
0.0
  0
LINE
  5
E5
330
1F
100
AcDbEntity
  8
0
  6
Continuous
 62
     7
370
    15
100
AcDbLine
 10
114.9259566759
 20
360.943747234
 30
0.0
 11
114.9259566759
 21
366.1842546579
 31
0.0
  0
LINE
  5
E6
330
1F
100
AcDbEntity
  8
0
  6
Continuous
 62
     7
370
    15
100
AcDbLine
 10
35.9259455895
 20
360.943747234
 30
0.0
 11
35.9259455895
 21
366.1842546579
 31
0.0
  0
LINE
  5
E7
330
1F
100
AcDbEntity
  8
0
  6
Continuous
 62
     7
370
    15
100
AcDbLine
 10
114.9259566759
 20
493.703236353
 30
0.0
 11
114.9259566759
 21
498.9437437769
 31
0.0
  0
LINE
  5
E8
330
1F
100
AcDbEntity
  8
0
  6
Continuous
 62
     7
370
    15
100
AcDbLine
 10
35.9259455895
 20
493.703236353
 30
0.0
 11
35.9259455895
 21
498.9437437769
 31
0.0
  0
LINE
  5
E9
330
1F
100
AcDbEntity
  8
0
  6
Continuous
 62
     7
370
    15
100
AcDbLine
 10
132.4259548878
 20
472.4437459525
 30
0.0
 11
151.6968219971
 21
472.4437459525
 31
0.0
  0
LINE
  5
EA
330
1F
100
AcDbEntity
  8
0
  6
Continuous
 62
     7
370
    15
100
AcDbLine
 10
164.1266703104
 20
472.4437459525
 30
0.0
 11
180.7771235203
 21
472.4437459525
 31
0.0
  0
LINE
  5
EB
330
1F
100
AcDbEntity
  8
0
  6
Continuous
 62
     7
370
    15
100
AcDbLine
 10
497.4259644245
 20
387.4437450584
 30
0.0
 11
480.7383477186
 21
387.4437450584
 31
0.0
  0
LINE
  5
EC
330
1F
100
AcDbEntity
  8
0
  6
Continuous
 62
     7
370
    15
100
AcDbLine
 10
469.8817342018
 20
387.4437450584
 30
0.0
 11
444.9182956909
 21
387.4437450584
 31
0.0
  0
LINE
  5
ED
330
1F
100
AcDbEntity
  8
0
  6
Continuous
 62
     7
370
    15
100
AcDbLine
 10
132.4259548878
 20
387.4437450584
 30
0.0
 11
149.1135715937
 21
387.4437450584
 31
0.0
  0
LINE
  5
EE
330
1F
100
AcDbEntity
  8
0
  6
Continuous
 62
     7
370
    15
100
AcDbLine
 10
159.9701851105
 20
387.4437450584
 30
0.0
 11
184.9336236214
 21
387.4437450584
 31
0.0
  0
LINE
  5
EF
330
1F
100
AcDbEntity
  8
0
  6
Continuous
 62
     7
370
    15
100
AcDbLine
 10
497.4259644245
 20
472.4437459525
 30
0.0
 11
478.1550973152
 21
472.4437459525
 31
0.0
  0
LINE
  5
F0
330
1F
100
AcDbEntity
  8
0
  6
Continuous
 62
     7
370
    15
100
AcDbLine
 10
465.7252490019
 20
472.4437459525
 30
0.0
 11
449.074795792
 21
472.4437459525
 31
0.0
  0
LINE
  5
F1
330
1F
100
AcDbEntity
  8
0
  6
Continuous
 62
     8
370
     0
100
AcDbLine
 10
35.9259455895
 20
376.9437461313
 30
0.0
 11
80.2783131098
 21
376.9437461313
 31
0.0
  0
LINE
  5
F2
330
1F
100
AcDbEntity
  8
0
  6
Continuous
 62
     8
370
     0
100
AcDbLine
 10
80.2783131098
 20
482.9437448796
 30
0.0
 11
35.9259455895
 21
482.9437448796
 31
0.0
  0
LINE
  5
F3
330
1F
100
AcDbEntity
  8
0
  6
Continuous
 62
     8
370
     0
100
AcDbLine
 10
73.6059605574
 20
370.9437451478
 30
0.0
 11
73.6059605574
 21
355.9437445518
 31
0.0
  0
LINE
  5
F4
330
1F
100
AcDbEntity
  8
0
  6
Continuous
 62
     8
370
     0
100
AcDbLine
 10
73.6059605574
 20
503.9437464591
 30
0.0
 11
73.6059605574
 21
488.9437458631
 31
0.0
  0
LINE
  5
F5
330
1F
100
AcDbEntity
  8
0
  6
Continuous
 62
     8
370
     0
100
AcDbLine
 10
35.9259455895
 20
366.1842546579
 30
0.0
 11
47.9159563278
 21
366.1842546579
 31
0.0
  0
LINE
  5
F6
330
1F
100
AcDbEntity
  8
0
  6
Continuous
 62
     8
370
     0
100
AcDbLine
 10
108.6059569811
 20
366.1842546579
 30
0.0
 11
114.9259566759
 21
366.1842546579
 31
0.0
  0
LINE
  5
F7
330
1F
100
AcDbEntity
  8
0
  6
Continuous
 62
     8
370
     0
100
AcDbLine
 10
35.9259455895
 20
493.703236353
 30
0.0
 11
47.9159563278
 21
493.703236353
 31
0.0
  0
LINE
  5
F8
330
1F
100
AcDbEntity
  8
0
  6
Continuous
 62
     8
370
     0
100
AcDbLine
 10
108.6059569811
 20
493.703236353
 30
0.0
 11
114.9259566759
 21
493.703236353
 31
0.0
  0
DIMENSION
  5
F9
330
1F
100
AcDbEntity
  8
FORMAT
 62
     7
100
AcDbDimension
  2
_D
 10
519.24705884
 20
606.9437455055
 30
0.0
 11
519.24705884
 21
547.6023848542
 31
0.0
 70
   160
  1
<>
 71
     2
 42
-1.0
  3
SLDDIMSTYLE0
100
AcDbAlignedDimension
 13
480.6830364347
 23
424.9437455055
 33
0.0
 14
384.9259596562
 24
606.9437455055
 34
0.0
 50
90.0
100
AcDbRotatedDimension
  0
INSERT
  5
163
330
1F
100
AcDbEntity
  8
FORMAT
 62
     7
100
AcDbBlockReference
  2
SW_CENTERMARKSYMBOL_0
 10
419.2242098812
 20
529.2419957305
 30
0.0
  0
LINE
  5
164
330
1F
100
AcDbEntity
  8
FORMAT
  6
CENTERX2
 62
     7
370
     0
100
AcDbLine
 10
480.6830364347
 20
429.9437455055
 30
0.0
 11
543.9259596562
 21
429.9437455055
 31
0.0
  0
LINE
  5
165
330
1F
100
AcDbEntity
  8
FORMAT
  6
CENTERX2
 62
     7
370
     0
100
AcDbLine
 10
28.1887319218
 20
429.9437455055
 30
0.0
 11
148.9790511071
 21
429.9437455055
 31
0.0
  0
LINE
  5
166
330
1F
100
AcDbEntity
  8
0
  6
Continuous
 62
     7
370
    15
100
AcDbLine
 10
782.0486302776
 20
503.9437464591
 30
0.0
 11
782.0486302776
 21
607.9437486049
 31
0.0
  0
LINE
  5
167
330
1F
100
AcDbEntity
  8
0
  6
Continuous
 62
     7
370
    15
100
AcDbLine
 10
762.0486307246
 20
607.9437486049
 30
0.0
 11
762.0486307246
 21
503.9437464591
 31
0.0
  0
LINE
  5
168
330
1F
100
AcDbEntity
  8
0
  6
Continuous
 62
     7
370
    15
100
AcDbLine
 10
586.048627953
 20
291.9437489625
 30
0.0
 11
589.0486265821
 21
291.9437489625
 31
0.0
  0
LINE
  5
169
330
1F
100
AcDbEntity
  8
0
  6
Continuous
 62
     7
370
    15
100
AcDbLine
 10
589.0486265821
 20
557.9437515851
 30
0.0
 11
586.048627953
 21
557.9437515851
 31
0.0
  0
LINE
  5
16A
330
1F
100
AcDbEntity
  8
0
  6
Continuous
 62
     7
370
    15
100
AcDbLine
 10
813.0486334962
 20
291.9437489625
 30
0.0
 11
816.0486321253
 21
291.9437489625
 31
0.0
  0
LINE
  5
16B
330
1F
100
AcDbEntity
  8
0
  6
Continuous
 62
     7
370
    15
100
AcDbLine
 10
816.0486321253
 20
557.9437515851
 30
0.0
 11
813.0486334962
 21
557.9437515851
 31
0.0
  0
LINE
  5
16C
330
1F
100
AcDbEntity
  8
0
  6
Continuous
 62
     7
370
    15
100
AcDbLine
 10
606.0486312313
 20
301.9437394258
 30
0.0
 11
643.1395734949
 21
315.4437444326
 31
0.0
  0
LINE
  5
16D
330
1F
100
AcDbEntity
  8
0
  6
Continuous
 62
     7
370
    15
100
AcDbLine
 10
758.9576865835
 20
315.4437444326
 30
0.0
 11
796.0486288471
 21
301.9437394258
 31
0.0
  0
LINE
  5
16E
330
1F
100
AcDbEntity
  8
0
  6
Continuous
 62
     7
370
    15
100
AcDbLine
 10
643.1395734949
 20
534.4437486645
 30
0.0
 11
606.0486312313
 21
547.9437462207
 31
0.0
  0
LINE
  5
16F
330
1F
100
AcDbEntity
  8
0
  6
Continuous
 62
     7
370
    15
100
AcDbLine
 10
796.0486288471
 20
547.9437462207
 30
0.0
 11
782.0486302776
 21
542.84816004
 31
0.0
  0
LINE
  5
170
330
1F
100
AcDbEntity
  8
0
  6
Continuous
 62
     7
370
    15
100
AcDbLine
 10
762.0486307246
 20
535.5687565323
 30
0.0
 11
758.9576865835
 21
534.4437486645
 31
0.0
  0
LINE
  5
171
330
1F
100
AcDbEntity
  8
0
  6
Continuous
 62
     7
370
    15
100
AcDbLine
 10
716.8892442537
 20
315.4437444326
 30
0.0
 11
758.9576865835
 21
315.4437444326
 31
0.0
  0
LINE
  5
172
330
1F
100
AcDbEntity
  8
0
  6
Continuous
 62
     7
370
    15
100
AcDbLine
 10
643.1395734949
 20
315.4437444326
 30
0.0
 11
685.2104037357
 21
315.4437444326
 31
0.0
  0
LINE
  5
173
330
1F
100
AcDbEntity
  8
0
  6
Continuous
 62
     7
370
    15
100
AcDbLine
 10
685.2104037357
 20
534.4437486645
 30
0.0
 11
643.1395734949
 21
534.4437486645
 31
0.0
  0
LINE
  5
174
330
1F
100
AcDbEntity
  8
0
  6
Continuous
 62
     7
370
    15
100
AcDbLine
 10
758.9576865835
 20
534.4437486645
 30
0.0
 11
716.8892442537
 21
534.4437486645
 31
0.0
  0
LINE
  5
175
330
1F
100
AcDbEntity
  8
0
  6
Continuous
 62
     7
370
    15
100
AcDbLine
 10
716.8997048689
 20
534.442496967
 30
0.0
 11
716.0486297039
 21
566.9437400218
 31
0.0
  0
LINE
  5
176
330
1F
100
AcDbEntity
  8
0
  6
Continuous
 62
     7
370
    15
100
AcDbLine
 10
686.0486303745
 20
566.9437400218
 30
0.0
 11
685.1975477589
 21
534.4422138449
 31
0.0
  0
LINE
  5
177
330
1F
100
AcDbEntity
  8
0
  6
Continuous
 62
     7
370
    15
100
AcDbLine
 10
685.1975477589
 20
315.4452792522
 30
0.0
 11
686.0486303745
 21
282.9437456247
 31
0.0
  0
LINE
  5
178
330
1F
100
AcDbEntity
  8
0
  6
Continuous
 62
     7
370
    15
100
AcDbLine
 10
716.0486297039
 20
282.9437456247
 30
0.0
 11
716.8997048689
 21
315.4449961301
 31
0.0
  0
CIRCLE
  5
179
330
1F
100
AcDbEntity
  8
0
  6
Continuous
 62
     7
370
    15
100
AcDbCircle
 10
701.0486300392
 20
429.9437455055
 30
0.0
 40
36.5
  0
ARC
  5
17A
330
1F
100
AcDbEntity
  8
0
  6
Continuous
 62
     7
370
    15
100
AcDbCircle
 10
796.0486300392
 20
376.9437455055
 30
0.0
 40
10.0
100
AcDbArc
 50
270.0
 51
0.0
  0
LINE
  5
17B
330
1F
100
AcDbEntity
  8
0
  6
Continuous
 62
     7
370
    15
100
AcDbLine
 10
731.2479677899
 20
366.9437444922
 30
0.0
 11
796.0486288471
 21
366.9437444922
 31
0.0
  0
ARC
  5
17C
330
1F
100
AcDbEntity
  8
0
  6
Continuous
 62
     7
370
    15
100
AcDbCircle
 10
731.2479677803
 20
356.9437455055
 30
0.0
 40
10.0
100
AcDbArc
 50
90.0
 51
112.4743688205
  0
ARC
  5
17D
330
1F
100
AcDbEntity
  8
0
  6
Continuous
 62
     7
370
    15
100
AcDbCircle
 10
701.0486300392
 20
429.9437455055
 30
0.0
 40
69.00000000000001
100
AcDbArc
 50
251.672627473
 51
292.4743688205
  0
LINE
  5
17E
330
1F
100
AcDbEntity
  8
0
  6
Continuous
 62
     7
370
    15
100
AcDbLine
 10
645.5486293239
 20
364.4437468764
 30
0.0
 11
679.3518557502
 21
364.4437468764
 31
0.0
  0
ARC
  5
17F
330
1F
100
AcDbEntity
  8
0
  6
Continuous
 62
     7
370
    15
100
AcDbCircle
 10
645.5486300392
 20
374.4437455055
 30
0.0
 40
10.0
100
AcDbArc
 50
180.0
 51
270.0
  0
ARC
  5
180
330
1F
100
AcDbEntity
  8
0
  6
Continuous
 62
     7
370
    15
100
AcDbCircle
 10
701.0486300392
 20
429.9437455055
 30
0.0
 40
69.00000000000009
100
AcDbArc
 50
161.672627473
 51
198.327372527
  0
LINE
  5
181
330
1F
100
AcDbEntity
  8
0
  6
Continuous
 62
     7
370
    15
100
AcDbLine
 10
635.5486314101
 20
485.4437462207
 30
0.0
 11
635.5486314101
 21
451.6405197945
 31
0.0
  0
LINE
  5
182
330
1F
100
AcDbEntity
  8
0
  6
Continuous
 62
     7
370
    15
100
AcDbLine
 10
679.3518557502
 20
495.4437441345
 30
0.0
 11
645.5486293239
 21
495.4437441345
 31
0.0
  0
ARC
  5
183
330
1F
100
AcDbEntity
  8
0
  6
Continuous
 62
     7
370
    15
100
AcDbCircle
 10
701.0486300392
 20
429.9437455055
 30
0.0
 40
68.99999999999979
100
AcDbArc
 50
67.5256311795
 51
108.327372527
  0
ARC
  5
184
330
1F
100
AcDbEntity
  8
0
  6
Continuous
 62
     7
370
    15
100
AcDbCircle
 10
731.2479677803
 20
502.9437455055
 30
0.0
 40
10.0000000000002
100
AcDbArc
 50
247.5256311795
 51
270.0
  0
LINE
  5
185
330
1F
100
AcDbEntity
  8
0
  6
Continuous
 62
     7
370
    15
100
AcDbLine
 10
796.0486288471
 20
492.9437465187
 30
0.0
 11
731.2479677899
 21
492.9437465187
 31
0.0
  0
ARC
  5
186
330
1F
100
AcDbEntity
  8
0
  6
Continuous
 62
     7
370
    15
100
AcDbCircle
 10
796.0486300392
 20
482.9437455055
 30
0.0
 40
10.00000000000011
100
AcDbArc
 50
0.0
 51
90.0
  0
LINE
  5
187
330
1F
100
AcDbEntity
  8
0
  6
Continuous
 62
     7
370
    15
100
AcDbLine
 10
806.0486267609
 20
376.9437461313
 30
0.0
 11
806.0486267609
 21
482.9437448796
 31
0.0
  0
LINE
  5
188
330
1F
100
AcDbEntity
  8
0
  6
Continuous
 62
     7
370
    15
100
AcDbLine
 10
635.5486314101
 20
408.2469712164
 30
0.0
 11
635.5486314101
 21
374.4437447902
 31
0.0
  0
ARC
  5
189
330
1F
100
AcDbEntity
  8
0
  6
Continuous
 62
     7
370
    15
100
AcDbCircle
 10
645.5486300392
 20
485.4437455055
 30
0.0
 40
10.0
100
AcDbArc
 50
90.0
 51
180.0
  0
LINE
  5
18A
330
1F
100
AcDbEntity
  8
0
  6
Continuous
 62
     7
370
    15
100
AcDbLine
 10
804.0486301584
 20
370.9437451478
 30
0.0
 11
804.0486301584
 21
355.9437445518
 31
0.0
  0
LINE
  5
18B
330
1F
100
AcDbEntity
  8
0
  6
Continuous
 62
     7
370
    15
100
AcDbLine
 10
746.5486291153
 20
355.9437445518
 30
0.0
 11
804.0486301584
 21
355.9437445518
 31
0.0
  0
LINE
  5
18C
330
1F
100
AcDbEntity
  8
0
  6
Continuous
 62
     7
370
    15
100
AcDbLine
 10
746.5486291153
 20
366.9437444922
 30
0.0
 11
746.5486291153
 21
355.9437445518
 31
0.0
  0
LINE
  5
18D
330
1F
100
AcDbEntity
  8
0
  6
Continuous
 62
     7
370
    15
100
AcDbLine
 10
804.0486301584
 20
503.9437464591
 30
0.0
 11
804.0486301584
 21
488.9437458631
 31
0.0
  0
LINE
  5
18E
330
1F
100
AcDbEntity
  8
0
  6
Continuous
 62
     7
370
    15
100
AcDbLine
 10
746.5486291153
 20
503.9437464591
 30
0.0
 11
746.5486291153
 21
492.9437465187
 31
0.0
  0
LINE
  5
18F
330
1F
100
AcDbEntity
  8
0
  6
Continuous
 62
     7
370
    15
100
AcDbLine
 10
746.5486291153
 20
503.9437464591
 30
0.0
 11
804.0486301584
 21
503.9437464591
 31
0.0
  0
LINE
  5
190
330
1F
100
AcDbEntity
  8
0
  6
Continuous
 62
     7
370
    15
100
AcDbLine
 10
747.0051261885
 20
351.9437438961
 30
0.0
 11
749.8918797178
 21
351.9437438961
 31
0.0
  0
LINE
  5
191
330
1F
100
AcDbEntity
  8
0
  6
Continuous
 62
     7
370
    15
100
AcDbLine
 10
747.0051261885
 20
355.9437445518
 30
0.0
 11
747.0051261885
 21
351.9437438961
 31
0.0
  0
LINE
  5
192
330
1F
100
AcDbEntity
  8
0
  6
Continuous
 62
     7
370
    15
100
AcDbLine
 10
749.8918797178
 20
355.9437445518
 30
0.0
 11
749.8918797178
 21
351.9437438961
 31
0.0
  0
LINE
  5
193
330
1F
100
AcDbEntity
  8
0
  6
Continuous
 62
     7
370
    15
100
AcDbLine
 10
749.8918797178
 20
507.9437471148
 30
0.0
 11
749.8918797178
 21
503.9437464591
 31
0.0
  0
LINE
  5
194
330
1F
100
AcDbEntity
  8
0
  6
Continuous
 62
     7
370
    15
100
AcDbLine
 10
749.8918797178
 20
507.9437471148
 30
0.0
 11
755.6653830511
 21
507.9437471148
 31
0.0
  0
LINE
  5
195
330
1F
100
AcDbEntity
  8
0
  6
Continuous
 62
     7
370
    15
100
AcDbLine
 10
755.6653830511
 20
507.9437471148
 30
0.0
 11
755.6653830511
 21
503.9437464591
 31
0.0
  0
LINE
  5
196
330
1F
100
AcDbEntity
  8
0
  6
Continuous
 62
     7
370
    15
100
AcDbLine
 10
755.6653830511
 20
355.9437445518
 30
0.0
 11
755.6653830511
 21
351.9437438961
 31
0.0
  0
LINE
  5
197
330
1F
100
AcDbEntity
  8
0
  6
Continuous
 62
     7
370
    15
100
AcDbLine
 10
758.5521328551
 20
355.9437445518
 30
0.0
 11
758.5521328551
 21
351.9437438961
 31
0.0
  0
LINE
  5
198
330
1F
100
AcDbEntity
  8
0
  6
Continuous
 62
     7
370
    15
100
AcDbLine
 10
755.6653830511
 20
351.9437438961
 30
0.0
 11
758.5521328551
 21
351.9437438961
 31
0.0
  0
LINE
  5
199
330
1F
100
AcDbEntity
  8
0
  6
Continuous
 62
     7
370
    15
100
AcDbLine
 10
749.8918797178
 20
351.9437438961
 30
0.0
 11
755.6653830511
 21
351.9437438961
 31
0.0
  0
LINE
  5
19A
330
1F
100
AcDbEntity
  8
0
  6
Continuous
 62
     7
370
    15
100
AcDbLine
 10
755.6653830511
 20
507.9437471148
 30
0.0
 11
758.5521328551
 21
507.9437471148
 31
0.0
  0
LINE
  5
19B
330
1F
100
AcDbEntity
  8
0
  6
Continuous
 62
     7
370
    15
100
AcDbLine
 10
758.5521328551
 20
507.9437471148
 30
0.0
 11
758.5521328551
 21
503.9437464591
 31
0.0
  0
LINE
  5
19C
330
1F
100
AcDbEntity
  8
0
  6
Continuous
 62
     7
370
    15
100
AcDbLine
 10
747.0051261885
 20
507.9437471148
 30
0.0
 11
747.0051261885
 21
503.9437464591
 31
0.0
  0
LINE
  5
19D
330
1F
100
AcDbEntity
  8
0
  6
Continuous
 62
     7
370
    15
100
AcDbLine
 10
747.0051261885
 20
507.9437471148
 30
0.0
 11
749.8918797178
 21
507.9437471148
 31
0.0
  0
LINE
  5
19E
330
1F
100
AcDbEntity
  8
0
  6
Continuous
 62
     7
370
    15
100
AcDbLine
 10
785.8951266212
 20
351.9437438961
 30
0.0
 11
788.7818764252
 21
351.9437438961
 31
0.0
  0
LINE
  5
19F
330
1F
100
AcDbEntity
  8
0
  6
Continuous
 62
     7
370
    15
100
AcDbLine
 10
785.8951266212
 20
355.9437445518
 30
0.0
 11
785.8951266212
 21
351.9437438961
 31
0.0
  0
LINE
  5
1A0
330
1F
100
AcDbEntity
  8
0
  6
Continuous
 62
     7
370
    15
100
AcDbLine
 10
788.7818764252
 20
355.9437445518
 30
0.0
 11
788.7818764252
 21
351.9437438961
 31
0.0
  0
LINE
  5
1A1
330
1F
100
AcDbEntity
  8
0
  6
Continuous
 62
     7
370
    15
100
AcDbLine
 10
785.8951266212
 20
507.9437471148
 30
0.0
 11
785.8951266212
 21
503.9437464591
 31
0.0
  0
LINE
  5
1A2
330
1F
100
AcDbEntity
  8
0
  6
Continuous
 62
     7
370
    15
100
AcDbLine
 10
788.7818764252
 20
507.9437471148
 30
0.0
 11
788.7818764252
 21
503.9437464591
 31
0.0
  0
LINE
  5
1A3
330
1F
100
AcDbEntity
  8
0
  6
Continuous
 62
     7
370
    15
100
AcDbLine
 10
785.8951266212
 20
507.9437471148
 30
0.0
 11
788.7818764252
 21
507.9437471148
 31
0.0
  0
LINE
  5
1A4
330
1F
100
AcDbEntity
  8
0
  6
Continuous
 62
     7
370
    15
100
AcDbLine
 10
794.5553834839
 20
355.9437445518
 30
0.0
 11
794.5553834839
 21
351.9437438961
 31
0.0
  0
LINE
  5
1A5
330
1F
100
AcDbEntity
  8
0
  6
Continuous
 62
     7
370
    15
100
AcDbLine
 10
797.4421332879
 20
355.9437445518
 30
0.0
 11
797.4421332879
 21
351.9437438961
 31
0.0
  0
LINE
  5
1A6
330
1F
100
AcDbEntity
  8
0
  6
Continuous
 62
     7
370
    15
100
AcDbLine
 10
794.5553834839
 20
351.9437438961
 30
0.0
 11
797.4421332879
 21
351.9437438961
 31
0.0
  0
LINE
  5
1A7
330
1F
100
AcDbEntity
  8
0
  6
Continuous
 62
     7
370
    15
100
AcDbLine
 10
788.7818764252
 20
351.9437438961
 30
0.0
 11
794.5553834839
 21
351.9437438961
 31
0.0
  0
LINE
  5
1A8
330
1F
100
AcDbEntity
  8
0
  6
Continuous
 62
     7
370
    15
100
AcDbLine
 10
794.5553834839
 20
507.9437471148
 30
0.0
 11
794.5553834839
 21
503.9437464591
 31
0.0
  0
LINE
  5
1A9
330
1F
100
AcDbEntity
  8
0
  6
Continuous
 62
     7
370
    15
100
AcDbLine
 10
788.7818764252
 20
507.9437471148
 30
0.0
 11
794.5553834839
 21
507.9437471148
 31
0.0
  0
LINE
  5
1AA
330
1F
100
AcDbEntity
  8
0
  6
Continuous
 62
     7
370
    15
100
AcDbLine
 10
797.4421332879
 20
507.9437471148
 30
0.0
 11
797.4421332879
 21
503.9437464591
 31
0.0
  0
LINE
  5
1AB
330
1F
100
AcDbEntity
  8
0
  6
Continuous
 62
     7
370
    15
100
AcDbLine
 10
794.5553834839
 20
507.9437471148
 30
0.0
 11
797.4421332879
 21
507.9437471148
 31
0.0
  0
LINE
  5
1AC
330
1F
100
AcDbEntity
  8
0
  6
Continuous
 62
     7
370
    15
100
AcDbLine
 10
762.0486307246
 20
607.9437486049
 30
0.0
 11
782.0486302776
 21
607.9437486049
 31
0.0
  0
LINE
  5
1AD
330
1F
100
AcDbEntity
  8
0
  6
Continuous
 62
     7
370
    15
100
AcDbLine
 10
609.0486298604
 20
387.5280334767
 30
0.0
 11
635.5486314101
 21
387.5280334767
 31
0.0
  0
LINE
  5
1AE
330
1F
100
AcDbEntity
  8
0
  6
Continuous
 62
     7
370
    15
100
AcDbLine
 10
609.0486298604
 20
398.8094567474
 30
0.0
 11
635.5486314101
 21
398.8094567474
 31
0.0
  0
LINE
  5
1AF
330
1F
100
AcDbEntity
  8
0
  6
Continuous
 62
     7
370
    15
100
AcDbLine
 10
609.0486298604
 20
398.8094567474
 30
0.0
 11
609.0486298604
 21
387.5280334767
 31
0.0
  0
LINE
  5
1B0
330
1F
100
AcDbEntity
  8
0
  6
Continuous
 62
     7
370
    15
100
AcDbLine
 10
609.0486298604
 20
381.8873218414
 30
0.0
 11
635.5486314101
 21
381.8873218414
 31
0.0
  0
LINE
  5
1B1
330
1F
100
AcDbEntity
  8
0
  6
Continuous
 62
     7
370
    15
100
AcDbLine
 10
609.0486298604
 20
387.5280334767
 30
0.0
 11
609.0486298604
 21
381.8873218414
 31
0.0
  0
LINE
  5
1B2
330
1F
100
AcDbEntity
  8
0
  6
Continuous
 62
     7
370
    15
100
AcDbLine
 10
609.0486298604
 20
461.0780342635
 30
0.0
 11
635.5486314101
 21
461.0780342635
 31
0.0
  0
LINE
  5
1B3
330
1F
100
AcDbEntity
  8
0
  6
Continuous
 62
     7
370
    15
100
AcDbLine
 10
609.0486298604
 20
472.3594575342
 30
0.0
 11
609.0486298604
 21
461.0780342635
 31
0.0
  0
LINE
  5
1B4
330
1F
100
AcDbEntity
  8
0
  6
Continuous
 62
     7
370
    15
100
AcDbLine
 10
609.0486298604
 20
472.3594575342
 30
0.0
 11
635.5486314101
 21
472.3594575342
 31
0.0
  0
LINE
  5
1B5
330
1F
100
AcDbEntity
  8
0
  6
Continuous
 62
     7
370
    15
100
AcDbLine
 10
609.0486298604
 20
478.0001691695
 30
0.0
 11
609.0486298604
 21
472.3594575342
 31
0.0
  0
LINE
  5
1B6
330
1F
100
AcDbEntity
  8
0
  6
Continuous
 62
     7
370
    15
100
AcDbLine
 10
609.0486298604
 20
478.0001691695
 30
0.0
 11
635.5486314101
 21
478.0001691695
 31
0.0
  0
LINE
  5
1B7
330
1F
100
AcDbEntity
  8
0
  6
Continuous
 62
     7
370
    15
100
AcDbLine
 10
609.0486298604
 20
455.4373207655
 30
0.0
 11
635.5486314101
 21
455.4373207655
 31
0.0
  0
LINE
  5
1B8
330
1F
100
AcDbEntity
  8
0
  6
Continuous
 62
     7
370
    15
100
AcDbLine
 10
609.0486298604
 20
461.0780342635
 30
0.0
 11
609.0486298604
 21
455.4373207655
 31
0.0
  0
LINE
  5
1B9
330
1F
100
AcDbEntity
  8
0
  6
Continuous
 62
     7
370
    15
100
AcDbLine
 10
609.0486298604
 20
404.4501702454
 30
0.0
 11
635.5486314101
 21
404.4501702454
 31
0.0
  0
LINE
  5
1BA
330
1F
100
AcDbEntity
  8
0
  6
Continuous
 62
     7
370
    15
100
AcDbLine
 10
609.0486298604
 20
404.4501702454
 30
0.0
 11
609.0486298604
 21
398.8094567474
 31
0.0
  0
ELLIPSE
  5
1BB
330
1F
100
AcDbEntity
  8
0
  6
Continuous
 62
     7
370
    15
100
AcDbEllipse
 10
166.8240806866
 20
424.9437455055
 30
0.0
 11
439.4146487120224
 21
0.0
 31
0.0
210
0.0
220
0.0
230
1.0
 40
0.3868783175
 41
0.0294160068079384
 42
0.0735958305251707
  0
LINE
  5
1BC
330
1F
100
AcDbEntity
  8
0
  6
Continuous
 62
     7
370
    15
100
AcDbLine
 10
605.0492550535
 20
437.4437453378
 30
0.0
 11
632.4574525756
 21
437.4437453378
 31
0.0
  0
LINE
  5
1BD
330
1F
100
AcDbEntity
  8
0
  6
Continuous
 62
     7
370
    15
100
AcDbLine
 10
606.0486312313
 20
422.4437456731
 30
0.0
 11
632.4574525756
 21
422.4437456731
 31
0.0
  0
LINE
  5
1BE
330
1F
100
AcDbEntity
  8
0
  6
Continuous
 62
     7
370
    15
100
AcDbLine
 10
606.0486312313
 20
579.8630765792
 30
0.0
 11
589.0486265821
 21
579.8630765792
 31
0.0
  0
LINE
  5
1BF
330
1F
100
AcDbEntity
  8
0
  6
Continuous
 62
     7
370
    15
100
AcDbLine
 10
606.0486312313
 20
437.4437453378
 30
0.0
 11
606.0486312313
 21
579.8630765792
 31
0.0
  0
LINE
  5
1C0
330
1F
100
AcDbEntity
  8
0
  6
Continuous
 62
     7
370
    15
100
AcDbLine
 10
606.0486312313
 20
270.0244090673
 30
0.0
 11
606.0486312313
 21
429.9437455055
 31
0.0
  0
LINE
  5
1C1
330
1F
100
AcDbEntity
  8
0
  6
Continuous
 62
     7
370
    15
100
AcDbLine
 10
606.0486312313
 20
270.0244090673
 30
0.0
 11
589.0486265821
 21
270.0244090673
 31
0.0
  0
LINE
  5
1C2
330
1F
100
AcDbEntity
  8
0
  6
Continuous
 62
     7
370
    15
100
AcDbLine
 10
589.0486265821
 20
270.0244090673
 30
0.0
 11
589.0486265821
 21
579.8630765792
 31
0.0
  0
LINE
  5
1C3
330
1F
100
AcDbEntity
  8
0
  6
Continuous
 62
     7
370
    15
100
AcDbLine
 10
813.0486334962
 20
270.0244090673
 30
0.0
 11
813.0486334962
 21
579.8630765792
 31
0.0
  0
LINE
  5
1C4
330
1F
100
AcDbEntity
  8
0
  6
Continuous
 62
     7
370
    15
100
AcDbLine
 10
796.0486288471
 20
270.0244090673
 30
0.0
 11
813.0486334962
 21
270.0244090673
 31
0.0
  0
LINE
  5
1C5
330
1F
100
AcDbEntity
  8
0
  6
Continuous
 62
     7
370
    15
100
AcDbLine
 10
796.0486288471
 20
270.0244090673
 30
0.0
 11
796.0486288471
 21
351.9437438961
 31
0.0
  0
LINE
  5
1C6
330
1F
100
AcDbEntity
  8
0
  6
Continuous
 62
     7
370
    15
100
AcDbLine
 10
796.0486288471
 20
507.9437471148
 30
0.0
 11
796.0486288471
 21
579.8630765792
 31
0.0
  0
LINE
  5
1C7
330
1F
100
AcDbEntity
  8
0
  6
Continuous
 62
     7
370
    15
100
AcDbLine
 10
796.0486288471
 20
579.8630765792
 30
0.0
 11
813.0486334962
 21
579.8630765792
 31
0.0
  0
LINE
  5
1C8
330
1F
100
AcDbEntity
  8
0
  6
Continuous
 62
     7
370
    15
100
AcDbLine
 10
586.048627953
 20
291.9437489625
 30
0.0
 11
586.048627953
 21
557.9437515851
 31
0.0
  0
LINE
  5
1C9
330
1F
100
AcDbEntity
  8
0
  6
Continuous
 62
     7
370
    15
100
AcDbLine
 10
816.0486321253
 20
291.9437489625
 30
0.0
 11
816.0486321253
 21
557.9437515851
 31
0.0
  0
LINE
  5
1CA
330
1F
100
AcDbEntity
  8
0
  6
Continuous
 62
     7
370
    15
100
AcDbLine
 10
643.1395734949
 20
315.4437444326
 30
0.0
 11
643.1395734949
 21
364.7382608768
 31
0.0
  0
LINE
  5
1CB
330
1F
100
AcDbEntity
  8
0
  6
Continuous
 62
     7
370
    15
100
AcDbLine
 10
758.9576865835
 20
315.4437444326
 30
0.0
 11
758.9576865835
 21
355.9437445518
 31
0.0
  0
LINE
  5
1CC
330
1F
100
AcDbEntity
  8
0
  6
Continuous
 62
     7
370
    15
100
AcDbLine
 10
643.1395734949
 20
495.1492301341
 30
0.0
 11
643.1395734949
 21
534.4437486645
 31
0.0
  0
LINE
  5
1CD
330
1F
100
AcDbEntity
  8
0
  6
Continuous
 62
     7
370
    15
100
AcDbLine
 10
758.9576865835
 20
503.9437464591
 30
0.0
 11
758.9576865835
 21
534.4437486645
 31
0.0
  0
SPLINE
  5
1CE
330
1F
100
AcDbEntity
  8
0
  6
Continuous
 62
     7
370
    15
100
AcDbSpline
210
0.0
220
0.0
230
1.0
 70
     8
 71
     3
 72
    17
 73
    13
 74
     0
 42
0.00000001
 43
0.00000001
 12
1.0
 22
0.0
 32
0.0
 13
1.0
 23
0.0
 33
0.0
 40
0.0
 40
0.0
 40
0.0
 40
0.0
 40
0.1054200789040673
 40
0.210840018237278
 40
0.3193096621502361
 40
0.4277788386613004
 40
0.533204685892216
 40
0.638629988140669
 40
0.7471538532985823
 40
0.8556772415337397
 40
0.9604836098079854
 40
1.0
 40
1.0
 40
1.0
 40
1.0
 10
689.881995069766
 20
316.0254038091916
 30
0.0
 10
689.5777507070661
 20
315.9933247802813
 30
0.0
 10
688.9692623844704
 20
315.9291667649317
 30
0.0
 10
688.1525178564071
 20
315.8346070508545
 30
0.0
 10
687.4146691984461
 20
315.7445568705551
 30
0.0
 10
686.7764881394523
 20
315.6624611177077
 30
0.0
 10
686.2452339825844
 20
315.5914072248929
 30
0.0
 10
685.8172139167727
 20
315.5322607697469
 30
0.0
 10
685.4925526369747
 20
315.4863469323624
 30
0.0
 10
685.2880365651646
 20
315.4568725134205
 30
0.0
 10
685.1950812343538
 20
315.4433972125182
 30
0.0
 10
685.2071101502843
 20
315.4451379142805
 30
0.0
 10
685.2104037357211
 20
315.4456145283002
 30
0.0
  0
SPLINE
  5
1CF
330
1F
100
AcDbEntity
  8
0
  6
Continuous
 62
     7
370
    15
100
AcDbSpline
210
0.0
220
0.0
230
1.0
 70
     8
 71
     3
 72
    37
 73
    33
 74
     0
 42
0.00000001
 43
0.00000001
 12
1.0
 22
0.0
 32
0.0
 13
1.0
 23
0.0
 33
0.0
 40
0.0
 40
0.0
 40
0.0
 40
0.0
 40
0.0084624056878731
 40
0.0447901004664564
 40
0.0798469884206001
 40
0.1149039901638452
 40
0.1509735793934668
 40
0.1870433576843895
 40
0.2222130243596807
 40
0.2573828144388117
 40
0.2935583745298281
 40
0.3297339847007256
 40
0.3651738020142906
 40
0.4006135373258412
 40
0.4370845136751498
 40
0.473555289397102
 40
0.5089498361478905
 40
0.5443441325827911
 40
0.5807886934177399
 40
0.6172330393287863
 40
0.6522567818562915
 40
0.6872804902443637
 40
0.7233328805831164
 40
0.7593854013431486
 40
0.7942361542143218
 40
0.8290871323520113
 40
0.8649353927197766
 40
0.9007839069100609
 40
0.9254192786329434
 40
0.9500547175175457
 40
0.9750273577420331
 40
1.0
 40
1.0
 40
1.0
 40
1.0
 10
716.8892442537189
 20
315.4452718015928
 30
0.0
 10
716.8923879043006
 20
315.4448152711835
 30
0.0
 10
716.9090267219817
 20
315.4423989319473
 30
0.0
 10
716.826299787309
 20
315.454397411614
 30
0.0
 10
716.6398003600091
 20
315.4813117691373
 30
0.0
 10
716.3382445410044
 20
315.5240842184782
 30
0.0
 10
715.9284174216847
 20
315.5809798899388
 30
0.0
 10
715.4121685300854
 20
315.6504184324588
 30
0.0
 10
714.7999716509711
 20
315.7296721624678
 30
0.0
 10
714.093045791917
 20
315.81696747463
 30
0.0
 10
713.2870745499459
 20
315.9109779499576
 30
0.0
 10
712.3918426192955
 20
316.0084206783942
 30
0.0
 10
711.4223306696045
 20
316.1056417697574
 30
0.0
 10
710.3776683152277
 20
316.2009028293656
 30
0.0
 10
709.2551779283767
 20
316.2920274300259
 30
0.0
 10
708.073153819329
 20
316.3754281598829
 30
0.0
 10
706.8521238895613
 20
316.4479105856227
 30
0.0
 10
705.5902593248392
 20
316.508595886897
 30
0.0
 10
704.2824325906942
 20
316.5558031966916
 30
0.0
 10
702.9551490456438
 20
316.5874496783346
 30
0.0
 10
701.6316784465147
 20
316.6025655709781
 30
0.0
 10
700.3089835130261
 20
316.6017659103009
 30
0.0
 10
698.9787155891679
 20
316.5843992164872
 30
0.0
 10
697.6656449228904
 20
316.5511417959553
 30
0.0
 10
696.3915823919158
 20
316.5034635410231
 30
0.0
 10
695.1520960212735
 20
316.4429202741466
 30
0.0
 10
693.9426787901947
 20
316.3700267217772
 30
0.0
 10
692.8948469199281
 20
316.2954116482661
 30
0.0
 10
692.0087624353279
 20
316.22449328394
 30
0.0
 10
691.2671402759634
 20
316.1599712897093
 30
0.0
 10
690.5529436725955
 20
316.0933087797155
 30
0.0
 10
690.1056446101129
 20
316.0480387999806
 30
0.0
 10
689.881995069766
 20
316.0254038091916
 30
0.0
  0
SPLINE
  5
1D0
330
1F
100
AcDbEntity
  8
0
  6
Continuous
 62
     7
370
    15
100
AcDbSpline
210
0.0
220
0.0
230
1.0
 70
     8
 71
     3
 72
    17
 73
    13
 74
     0
 42
0.00000001
 43
0.00000001
 12
1.0
 22
0.0
 32
0.0
 13
1.0
 23
0.0
 33
0.0
 40
0.0
 40
0.0
 40
0.0
 40
0.0
 40
0.1054200796501478
 40
0.2108400197294381
 40
0.3193096644100591
 40
0.4277788416887831
 40
0.5332046896658201
 40
0.6386299926603906
 40
0.7471538585863505
 40
0.8556772475895513
 40
0.9604836103902714
 40
1.0
 40
1.0
 40
1.0
 40
1.0
 10
689.881995069766
 20
533.8620892878789
 30
0.0
 10
689.5777507070661
 20
533.8941683166302
 30
0.0
 10
688.9692623844703
 20
533.9583263316616
 30
0.0
 10
688.1525178564078
 20
534.0528860481479
 30
0.0
 10
687.4146691984434
 20
534.1429362190361
 30
0.0
 10
686.7764881394621
 20
534.2250320069281
 30
0.0
 10
686.2452339825494
 20
534.2960857725147
 30
0.0
 10
685.8172139169053
 20
534.3552327042443
 30
0.0
 10
685.4925526364634
 20
534.4011447118185
 30
0.0
 10
685.2880365709925
 20
534.4306259216775
 30
0.0
 10
685.1950812339581
 20
534.4440817480867
 30
0.0
 10
685.2071101501288
 20
534.4423521441541
 30
0.0
 10
685.2104037357211
 20
534.4418785687703
 30
0.0
  0
SPLINE
  5
1D1
330
1F
100
AcDbEntity
  8
0
  6
Continuous
 62
     7
370
    15
100
AcDbSpline
210
0.0
220
0.0
230
1.0
 70
     8
 71
     3
 72
    37
 73
    33
 74
     0
 42
0.00000001
 43
0.00000001
 12
1.0
 22
0.0
 32
0.0
 13
1.0
 23
0.0
 33
0.0
 40
0.0
 40
0.0
 40
0.0
 40
0.0
 40
0.0084624050338565
 40
0.0447900998198221
 40
0.0798469836003409
 40
0.1149039917395356
 40
0.1509735809764871
 40
0.1870433489572876
 40
0.2222130156397258
 40
0.2573828057260039
 40
0.2935583658243717
 40
0.3297339760026207
 40
0.3651737933233876
 40
0.4006135427886559
 40
0.4370845191453759
 40
0.4735552826104019
 40
0.5089498293683832
 40
0.5443441348267124
 40
0.5807886887157873
 40
0.6172330393008937
 40
0.6522567795657012
 40
0.6872804879608907
 40
0.7233328783069699
 40
0.7593853941120122
 40
0.7942361541725073
 40
0.8290871323172789
 40
0.8649353926923292
 40
0.9007839068898986
 40
0.9254192786177874
 40
0.9500547175073959
 40
0.9750273577369583
 40
1.0
 40
1.0
 40
1.0
 40
1.0
 10
716.8892442537189
 20
534.4422212954778
 30
0.0
 10
716.8923879041021
 20
534.442675106033
 30
0.0
 10
716.9090267217786
 20
534.4450770496874
 30
0.0
 10
716.8262998065047
 20
534.4330883125068
 30
0.0
 10
716.6398003120801
 20
534.4061856054705
 30
0.0
 10
716.3382445706718
 20
534.3633988451919
 30
0.0
 10
715.928417513458
 20
534.306503925869
 30
0.0
 10
715.4121684224298
 20
534.2370770680309
 30
0.0
 10
714.7999716630827
 20
534.1578203080174
 30
0.0
 10
714.0930457911346
 20
534.0705257504903
 30
0.0
 10
713.2870745402446
 20
533.976515286975
 30
0.0
 10
712.3918426584659
 20
533.8790717368962
 30
0.0
 10
711.4223303977675
 20
533.7818538436835
 30
0.0
 10
710.3776685785668
 20
533.6865806693507
 30
0.0
 10
709.2551781525601
 20
533.595456529889
 30
0.0
 10
708.0731535905163
 20
533.5120663518676
 30
0.0
 10
706.8521236755995
 20
533.4395855110696
 30
0.0
 10
705.5902597337771
 20
533.378883579948
 30
0.0
 10
704.2824322549824
 20
533.3316968860659
 30
0.0
 10
702.9551492534698
 20
533.3000295599621
 30
0.0
 10
701.6316783698915
 20
533.2849313962853
 30
0.0
 10
700.3089835039058
 20
533.2857252720794
 30
0.0
 10
698.9787157402255
 20
533.3030976610962
 30
0.0
 10
697.6656446133904
 20
533.3363383321683
 30
0.0
 10
696.3915825881131
 20
533.3840329730614
 30
0.0
 10
695.1520959903187
 20
533.4445718761623
 30
0.0
 10
693.9426787986915
 20
533.5174666351732
 30
0.0
 10
692.8948469184284
 20
533.5920814029371
 30
0.0
 10
692.0087624356646
 20
533.6629998234299
 30
0.0
 10
691.2671402758721
 20
533.7275218045726
 30
0.0
 10
690.5529436726183
 20
533.7941843180562
 30
0.0
 10
690.1056446101206
 20
533.8394542973236
 30
0.0
 10
689.881995069766
 20
533.8620892878789
 30
0.0
  0
LINE
  5
1D2
330
1F
100
AcDbEntity
  8
0
  6
Continuous
 62
     7
370
    15
100
AcDbLine
 10
679.0486301584
 20
327.4971819636
 30
0.0
 11
679.0486301584
 21
364.4437468764
 31
0.0
  0
SPLINE
  5
1D3
330
1F
100
AcDbEntity
  8
0
  6
Continuous
 62
     7
370
    15
100
AcDbSpline
210
0.0
220
0.0
230
1.0
 70
     8
 71
     3
 72
    20
 73
    16
 74
     0
 42
0.00000001
 43
0.00000001
 12
1.0
 22
0.0
 32
0.0
 13
1.0
 23
0.0
 33
0.0
 40
0.0
 40
0.0
 40
0.0
 40
0.0
 40
0.1249999999999982
 40
0.1249999999999982
 40
0.2499999999999963
 40
0.2499999999999963
 40
0.3749999999999945
 40
0.3749999999999945
 40
0.4999999999999927
 40
0.4999999999999927
 40
0.7499999999999957
 40
0.7499999999999957
 40
0.8749999999999978
 40
0.8749999999999978
 40
1.0
 40
1.0
 40
1.0
 40
1.0
 10
681.0486300391792
 20
326.5004353121884
 30
0.0
 10
680.91371483733
 20
326.5004353121885
 30
0.0
 10
680.7813850131474
 20
326.5073462074519
 30
0.0
 10
680.5214234996392
 20
326.5337546482373
 30
0.0
 10
680.3924425701089
 20
326.5535951008212
 30
0.0
 10
680.1481614082057
 20
326.604481545285
 30
0.0
 10
680.032419786952
 20
326.6354010614309
 30
0.0
 10
679.8137583106095
 20
326.7083229691739
 30
0.0
 10
679.711565547223
 20
326.7502877588283
 30
0.0
 10
679.4386326368026
 20
326.8881969490624
 30
0.0
 10
679.294400848192
 20
326.9989795685366
 30
0.0
 10
679.1490241216532
 20
327.1775243578971
 30
0.0
 10
679.1115101424556
 20
327.2401052979149
 30
0.0
 10
679.0614604085547
 20
327.3671779433667
 30
0.0
 10
679.0486300391792
 20
327.4316722338663
 30
0.0
 10
679.0486300391792
 20
327.4971790338678
 30
0.0
  0
LINE
  5
1D4
330
1F
100
AcDbEntity
  8
0
  6
Continuous
 62
     7
370
    15
100
AcDbLine
 10
721.0486295921
 20
326.5004358407
 30
0.0
 11
681.0486304862
 21
326.5004358407
 31
0.0
  0
SPLINE
  5
1D5
330
1F
100
AcDbEntity
  8
0
  6
Continuous
 62
     7
370
    15
100
AcDbSpline
210
0.0
220
0.0
230
1.0
 70
     8
 71
     3
 72
    20
 73
    16
 74
     0
 42
0.00000001
 43
0.00000001
 12
1.0
 22
0.0
 32
0.0
 13
1.0
 23
0.0
 33
0.0
 40
0.0
 40
0.0
 40
0.0
 40
0.0
 40
0.1250000000000001
 40
0.1250000000000001
 40
0.2500000000000002
 40
0.2500000000000002
 40
0.3750000000000002
 40
0.3750000000000002
 40
0.5000000000000003
 40
0.5000000000000003
 40
0.6250000000000004
 40
0.6250000000000004
 40
0.7500000000000004
 40
0.7500000000000004
 40
1.0
 40
1.0
 40
1.0
 40
1.0
 10
723.0486300391793
 20
327.4971790338678
 30
0.0
 10
723.0486300391793
 20
327.4316080408584
 30
0.0
 10
723.0359076228157
 20
327.3673124131843
 30
0.0
 10
722.9865746917939
 20
327.2411026458298
 30
0.0
 10
722.9495270140709
 20
327.1786783828456
 30
0.0
 10
722.8521053779465
 20
327.0587331460973
 30
0.0
 10
722.7925052126031
 20
327.0018537251082
 30
0.0
 10
722.651465902341
 20
326.8941932869625
 30
0.0
 10
722.5688611722355
 20
326.8428970353269
 30
0.0
 10
722.3862142637845
 20
326.7504931817877
 30
0.0
 10
722.2860338096264
 20
326.7092807971442
 30
0.0
 10
722.0685225964666
 20
326.636397822837
 30
0.0
 10
721.9503434156518
 20
326.6047027983194
 30
0.0
 10
721.5852049069558
 20
326.5284618476786
 30
0.0
 10
721.3185487452162
 20
326.5004353121885
 30
0.0
 10
721.0486300391793
 20
326.5004353121884
 30
0.0
  0
LINE
  5
1D6
330
1F
100
AcDbEntity
  8
0
  6
Continuous
 62
     7
370
    15
100
AcDbLine
 10
723.04862992
 20
364.5449704644
 30
0.0
 11
723.04862992
 21
327.4971819636
 31
0.0
  0
LINE
  5
1D7
330
1F
100
AcDbEntity
  8
0
  6
Continuous
 62
     7
370
    15
100
AcDbLine
 10
728.0486307395
 20
366.418143284
 30
0.0
 11
728.0486307395
 21
327.4971819636
 31
0.0
  0
SPLINE
  5
1D8
330
1F
100
AcDbEntity
  8
0
  6
Continuous
 62
     7
370
    15
100
AcDbSpline
210
0.0
220
0.0
230
1.0
 70
     8
 71
     3
 72
    12
 73
     8
 74
     0
 42
0.00000001
 43
0.00000001
 12
1.0
 22
0.0
 32
0.0
 13
1.0
 23
0.0
 33
0.0
 40
0.0
 40
0.0
 40
0.0
 40
0.0
 40
0.5000000000000003
 40
0.5000000000000003
 40
0.7500000000000002
 40
0.7500000000000002
 40
1.0
 40
1.0
 40
1.0
 40
1.0
 10
721.0486300391793
 20
324.1389924920223
 30
0.0
 10
722.9456155506919
 20
324.1389924920223
 30
0.0
 10
724.7762714318269
 20
324.4978747253735
 30
0.0
 10
726.6898811091302
 20
325.4158550402875
 30
0.0
 10
727.191867768638
 20
325.7813293960695
 30
0.0
 10
727.8738221580953
 20
326.5967499260757
 30
0.0
 10
728.0486300391793
 20
327.0365473549458
 30
0.0
 10
728.0486300391793
 20
327.4971790338678
 30
0.0
  0
LINE
  5
1D9
330
1F
100
AcDbEntity
  8
0
  6
Continuous
 62
     7
370
    15
100
AcDbLine
 10
721.0486295921
 20
324.1389892217
 30
0.0
 11
681.0486304862
 21
324.1389892217
 31
0.0
  0
SPLINE
  5
1DA
330
1F
100
AcDbEntity
  8
0
  6
Continuous
 62
     7
370
    15
100
AcDbSpline
210
0.0
220
0.0
230
1.0
 70
     8
 71
     3
 72
    12
 73
     8
 74
     0
 42
0.00000001
 43
0.00000001
 12
1.0
 22
0.0
 32
0.0
 13
1.0
 23
0.0
 33
0.0
 40
0.0
 40
0.0
 40
0.0
 40
0.0
 40
0.5000000000000003
 40
0.5000000000000003
 40
0.7500000000000002
 40
0.7500000000000002
 40
1.0
 40
1.0
 40
1.0
 40
1.0
 10
674.0486300391792
 20
327.4971790338678
 30
0.0
 10
674.0486300391792
 20
326.5766961574467
 30
0.0
 10
674.7761533101851
 20
325.717921217709
 30
0.0
 10
676.6840840430897
 20
324.8037763257418
 30
0.0
 10
677.4603200192373
 20
324.5579593487743
 30
0.0
 10
679.1707629386693
 20
324.2260613944587
 30
0.0
 10
680.1010685818945
 20
324.1389924920223
 30
0.0
 10
681.0486300391792
 20
324.1389924920223
 30
0.0
  0
LINE
  5
1DB
330
1F
100
AcDbEntity
  8
0
  6
Continuous
 62
     7
370
    15
100
AcDbLine
 10
674.0486293388
 20
327.4971819636
 30
0.0
 11
674.0486293388
 21
364.4437468764
 31
0.0
  0
SPLINE
  5
1DC
330
1F
100
AcDbEntity
  8
0
  6
Continuous
 62
     7
370
    15
100
AcDbSpline
210
0.0
220
0.0
230
1.0
 70
     8
 71
     3
 72
    20
 73
    16
 74
     0
 42
0.00000001
 43
0.00000001
 12
1.0
 22
0.0
 32
0.0
 13
1.0
 23
0.0
 33
0.0
 40
0.0
 40
0.0
 40
0.0
 40
0.0
 40
0.1250000000000004
 40
0.1250000000000004
 40
0.2500000000000007
 40
0.2500000000000007
 40
0.3750000000000011
 40
0.3750000000000011
 40
0.5000000000000014
 40
0.5000000000000014
 40
0.6250000000000018
 40
0.6250000000000018
 40
0.7500000000000022
 40
0.7500000000000022
 40
1.0
 40
1.0
 40
1.0
 40
1.0
 10
723.0486300391793
 20
329.2649459868342
 30
0.0
 10
723.0486300391793
 20
329.1993749938248
 30
0.0
 10
723.0359076228157
 20
329.1350793661506
 30
0.0
 10
722.9865746917939
 20
329.0088695987962
 30
0.0
 10
722.9495270140709
 20
328.9464453358121
 30
0.0
 10
722.8521053779465
 20
328.8265000990637
 30
0.0
 10
722.7925052126031
 20
328.7696206780745
 30
0.0
 10
722.651465902341
 20
328.6619602399289
 30
0.0
 10
722.5688611722355
 20
328.6106639882932
 30
0.0
 10
722.3862142637845
 20
328.5182601347541
 30
0.0
 10
722.2860338096264
 20
328.4770477501106
 30
0.0
 10
722.0685225964666
 20
328.4041647758033
 30
0.0
 10
721.9503434156518
 20
328.3724697512857
 30
0.0
 10
721.5852049069558
 20
328.2962288006449
 30
0.0
 10
721.3185487452162
 20
328.2682022651547
 30
0.0
 10
721.0486300391793
 20
328.2682022651548
 30
0.0
  0
LINE
  5
1DD
330
1F
100
AcDbEntity
  8
0
  6
Continuous
 62
     7
370
    15
100
AcDbLine
 10
721.0486295921
 20
328.2682052966
 30
0.0
 11
681.0486304862
 21
328.2682052966
 31
0.0
  0
SPLINE
  5
1DE
330
1F
100
AcDbEntity
  8
0
  6
Continuous
 62
     7
370
    15
100
AcDbSpline
210
0.0
220
0.0
230
1.0
 70
     8
 71
     3
 72
    20
 73
    16
 74
     0
 42
0.00000001
 43
0.00000001
 12
1.0
 22
0.0
 32
0.0
 13
1.0
 23
0.0
 33
0.0
 40
0.0
 40
0.0
 40
0.0
 40
0.0
 40
0.1250000000000001
 40
0.1250000000000001
 40
0.2500000000000002
 40
0.2500000000000002
 40
0.3750000000000003
 40
0.3750000000000003
 40
0.5000000000000004
 40
0.5000000000000004
 40
0.7500000000000029
 40
0.7500000000000029
 40
0.8750000000000014
 40
0.8750000000000014
 40
1.0
 40
1.0
 40
1.0
 40
1.0
 10
681.0486300391792
 20
328.2682022651548
 30
0.0
 10
680.91371483733
 20
328.2682022651548
 30
0.0
 10
680.7813850131474
 20
328.2751131604184
 30
0.0
 10
680.5214234996392
 20
328.3015216012037
 30
0.0
 10
680.3924425701089
 20
328.3213620537875
 30
0.0
 10
680.1481614082057
 20
328.3722484982513
 30
0.0
 10
680.032419786952
 20
328.4031680143973
 30
0.0
 10
679.8137583106095
 20
328.4760899221403
 30
0.0
 10
679.711565547223
 20
328.5180547117946
 30
0.0
 10
679.4386326368026
 20
328.6559639020288
 30
0.0
 10
679.294400848192
 20
328.766746521503
 30
0.0
 10
679.1490241216532
 20
328.9452913108635
 30
0.0
 10
679.1115101424556
 20
329.0078722508812
 30
0.0
 10
679.0614604085547
 20
329.134944896333
 30
0.0
 10
679.0486300391792
 20
329.1994391868327
 30
0.0
 10
679.0486300391792
 20
329.2649459868342
 30
0.0
  0
LINE
  5
1DF
330
1F
100
AcDbEntity
  8
0
  6
Continuous
 62
     7
370
    15
100
AcDbLine
 10
606.0486312313
 20
242.9437390682
 30
0.0
 11
589.0486265821
 21
242.9437390682
 31
0.0
  0
LINE
  5
1E0
330
1F
100
AcDbEntity
  8
0
  6
Continuous
 62
     7
370
    15
100
AcDbLine
 10
606.0486312313
 20
270.0244090673
 30
0.0
 11
606.0486312313
 21
242.9437390682
 31
0.0
  0
LINE
  5
1E1
330
1F
100
AcDbEntity
  8
0
  6
Continuous
 62
     7
370
    15
100
AcDbLine
 10
589.0486265821
 20
270.0244090673
 30
0.0
 11
589.0486265821
 21
242.9437390682
 31
0.0
  0
LINE
  5
1E2
330
1F
100
AcDbEntity
  8
0
  6
Continuous
 62
     7
370
    15
100
AcDbLine
 10
606.0486312313
 20
606.9437465783
 30
0.0
 11
589.0486265821
 21
606.9437465783
 31
0.0
  0
LINE
  5
1E3
330
1F
100
AcDbEntity
  8
0
  6
Continuous
 62
     7
370
    15
100
AcDbLine
 10
606.0486312313
 20
579.8630765792
 30
0.0
 11
606.0486312313
 21
606.9437465783
 31
0.0
  0
LINE
  5
1E4
330
1F
100
AcDbEntity
  8
0
  6
Continuous
 62
     7
370
    15
100
AcDbLine
 10
589.0486265821
 20
579.8630765792
 30
0.0
 11
589.0486265821
 21
606.9437465783
 31
0.0
  0
LINE
  5
1E5
330
1F
100
AcDbEntity
  8
0
  6
Continuous
 62
     7
370
    15
100
AcDbLine
 10
796.0486288471
 20
606.9437465783
 30
0.0
 11
813.0486334962
 21
606.9437465783
 31
0.0
  0
LINE
  5
1E6
330
1F
100
AcDbEntity
  8
0
  6
Continuous
 62
     7
370
    15
100
AcDbLine
 10
796.0486288471
 20
579.8630765792
 30
0.0
 11
796.0486288471
 21
606.9437465783
 31
0.0
  0
LINE
  5
1E7
330
1F
100
AcDbEntity
  8
0
  6
Continuous
 62
     7
370
    15
100
AcDbLine
 10
813.0486334962
 20
579.8630765792
 30
0.0
 11
813.0486334962
 21
606.9437465783
 31
0.0
  0
LINE
  5
1E8
330
1F
100
AcDbEntity
  8
0
  6
Continuous
 62
     7
370
    15
100
AcDbLine
 10
796.0486288471
 20
242.9437390682
 30
0.0
 11
813.0486334962
 21
242.9437390682
 31
0.0
  0
LINE
  5
1E9
330
1F
100
AcDbEntity
  8
0
  6
Continuous
 62
     7
370
    15
100
AcDbLine
 10
813.0486334962
 20
270.0244090673
 30
0.0
 11
813.0486334962
 21
242.9437390682
 31
0.0
  0
LINE
  5
1EA
330
1F
100
AcDbEntity
  8
0
  6
Continuous
 62
     7
370
    15
100
AcDbLine
 10
796.0486288471
 20
270.0244090673
 30
0.0
 11
796.0486288471
 21
242.9437390682
 31
0.0
  0
LINE
  5
1EB
330
1F
100
AcDbEntity
  8
0
  6
Continuous
 62
     7
370
    15
100
AcDbLine
 10
686.0486303745
 20
566.9437400218
 30
0.0
 11
716.0486297039
 21
566.9437400218
 31
0.0
  0
LINE
  5
1EC
330
1F
100
AcDbEntity
  8
0
  6
Continuous
 62
     7
370
    15
100
AcDbLine
 10
686.0486303745
 20
282.9437456247
 30
0.0
 11
716.0486297039
 21
282.9437456247
 31
0.0
  0
LINE
  5
1ED
330
1F
100
AcDbEntity
  8
0
  6
Continuous
 62
     8
370
     0
100
AcDbLine
 10
721.0486295921
 20
328.2682052966
 30
0.0
 11
721.0486295921
 21
326.5004358407
 31
0.0
  0
LINE
  5
1EE
330
1F
100
AcDbEntity
  8
0
  6
Continuous
 62
     8
370
     0
100
AcDbLine
 10
681.0486304862
 20
328.2682052966
 30
0.0
 11
681.0486304862
 21
326.5004358407
 31
0.0
  0
INSERT
  5
1FA
330
1F
100
AcDbEntity
  8
FORMAT
 62
     7
100
AcDbBlockReference
  2
SW_CENTERMARKSYMBOL_1
 10
701.0486300392
 20
429.9437455055
 30
0.0
  0
LINE
  5
1FB
330
1F
100
AcDbEntity
  8
0
  6
Continuous
 62
     7
370
    15
100
AcDbLine
 10
484.9259614443
 20
186.1481094272
 30
0.0
 11
484.9259614443
 21
203.1481140764
 31
0.0
  0
LINE
  5
1FC
330
1F
100
AcDbEntity
  8
0
  6
Continuous
 62
     7
370
    15
100
AcDbLine
 10
144.925957868
 20
203.1481140764
 30
0.0
 11
144.925957868
 21
186.1481094272
 31
0.0
  0
LINE
  5
1FD
330
1F
100
AcDbEntity
  8
0
  6
Continuous
 62
     7
370
    15
100
AcDbLine
 10
144.925957868
 20
-3.8518881886
 30
0.0
 11
144.925957868
 21
-20.8518928377
 31
0.0
  0
LINE
  5
1FE
330
1F
100
AcDbEntity
  8
0
  6
Continuous
 62
     7
370
    15
100
AcDbLine
 10
484.9259614443
 20
-20.8518928377
 30
0.0
 11
484.9259614443
 21
-3.8518881886
 31
0.0
  0
LINE
  5
1FF
330
1F
100
AcDbEntity
  8
0
  6
Continuous
 62
     7
370
    15
100
AcDbLine
 10
181.9259583449
 20
206.1481127055
 30
0.0
 11
181.9259583449
 21
203.1481140764
 31
0.0
  0
LINE
  5
200
330
1F
100
AcDbEntity
  8
0
  6
Continuous
 62
     7
370
    15
100
AcDbLine
 10
447.9259609675
 20
203.1481140764
 30
0.0
 11
447.9259609675
 21
206.1481127055
 31
0.0
  0
LINE
  5
201
330
1F
100
AcDbEntity
  8
0
  6
Continuous
 62
     7
370
    15
100
AcDbLine
 10
181.9259583449
 20
-20.8518928377
 30
0.0
 11
181.9259583449
 21
-23.8518914668
 31
0.0
  0
LINE
  5
202
330
1F
100
AcDbEntity
  8
0
  6
Continuous
 62
     7
370
    15
100
AcDbLine
 10
447.9259609675
 20
-23.8518914668
 30
0.0
 11
447.9259609675
 21
-20.8518928377
 31
0.0
  0
LINE
  5
203
330
1F
100
AcDbEntity
  8
0
  6
Continuous
 62
     7
370
    15
100
AcDbLine
 10
343.2509101426
 20
110.7522533746
 30
0.0
 11
345.0186777359
 21
110.7522533746
 31
0.0
  0
LINE
  5
204
330
1F
100
AcDbEntity
  8
0
  6
Continuous
 62
     7
370
    15
100
AcDbLine
 10
345.0181617831
 20
107.1671476127
 30
0.0
 11
343.2503960525
 21
107.1671476127
 31
0.0
  0
LINE
  5
205
330
1F
100
AcDbEntity
  8
0
  6
Continuous
 62
     7
370
    15
100
AcDbLine
 10
361.6860903298
 20
113.1266416521
 30
0.0
 11
359.918283621
 21
113.1266416521
 31
0.0
  0
LINE
  5
206
330
1F
100
AcDbEntity
  8
0
  6
Continuous
 62
     7
370
    15
100
AcDbLine
 10
361.6861275827
 20
86.9077635469
 30
0.0
 11
359.918283621
 21
86.9077635469
 31
0.0
  0
LINE
  5
207
330
1F
100
AcDbEntity
  8
0
  6
Continuous
 62
     7
370
    15
100
AcDbLine
 10
359.9183320498
 20
95.3884530352
 30
0.0
 11
361.6861611103
 21
95.3884530352
 31
0.0
  0
LINE
  5
208
330
1F
100
AcDbEntity
  8
0
  6
Continuous
 62
     7
370
    15
100
AcDbLine
 10
359.9183320498
 20
66.4992989512
 30
0.0
 11
361.6861611103
 21
66.4992989512
 31
0.0
  0
LINE
  5
209
330
1F
100
AcDbEntity
  8
0
  6
Continuous
 62
     7
370
    15
100
AcDbLine
 10
114.9259566759
 20
28.6481106193
 30
0.0
 11
132.4259548878
 21
28.6481106193
 31
0.0
  0
LINE
  5
20A
330
1F
100
AcDbEntity
  8
0
  6
Continuous
 62
     7
370
    15
100
AcDbLine
 10
132.4259548878
 20
153.6481106193
 30
0.0
 11
114.9259566759
 21
153.6481106193
 31
0.0
  0
LINE
  5
20B
330
1F
100
AcDbEntity
  8
0
  6
Continuous
 62
     7
370
    15
100
AcDbLine
 10
541.9259577488
 20
153.6481106193
 30
0.0
 11
497.4259644245
 21
153.6481106193
 31
0.0
  0
LINE
  5
20C
330
1F
100
AcDbEntity
  8
0
  6
Continuous
 62
     7
370
    15
100
AcDbLine
 10
497.4259644245
 20
28.6481106193
 30
0.0
 11
541.9259577488
 21
28.6481106193
 31
0.0
  0
LINE
  5
20D
330
1F
100
AcDbEntity
  8
0
  6
Continuous
 62
     7
370
    15
100
AcDbLine
 10
35.9259455895
 20
127.6481100829
 30
0.0
 11
34.9259584641
 21
127.6481100829
 31
0.0
  0
LINE
  5
20E
330
1F
100
AcDbEntity
  8
0
  6
Continuous
 62
     7
370
    15
100
AcDbLine
 10
34.9259584641
 20
54.6481111558
 30
0.0
 11
35.9259455895
 21
54.6481111558
 31
0.0
  0
LINE
  5
20F
330
1F
100
AcDbEntity
  8
0
  6
Continuous
 62
     7
370
    15
100
AcDbLine
 10
114.9259566759
 20
160.1481088908
 30
0.0
 11
84.5159649348
 21
160.1481088908
 31
0.0
  0
LINE
  5
210
330
1F
100
AcDbEntity
  8
0
  6
Continuous
 62
     7
370
    15
100
AcDbLine
 10
64.975953052
 20
160.1481088908
 30
0.0
 11
35.9259455895
 21
160.1481088908
 31
0.0
  0
CIRCLE
  5
211
330
1F
100
AcDbEntity
  8
0
  6
Continuous
 62
     7
370
    15
100
AcDbCircle
 10
74.4259596562
 20
20.1481106193
 30
0.0
 40
10.00000000000001
  0
LINE
  5
212
330
1F
100
AcDbEntity
  8
0
  6
Continuous
 62
     7
370
    15
100
AcDbLine
 10
384.9259599542
 20
186.1481094272
 30
0.0
 11
384.9259599542
 21
203.1481140764
 31
0.0
  0
LINE
  5
213
330
1F
100
AcDbEntity
  8
0
  6
Continuous
 62
     7
370
    15
100
AcDbLine
 10
349.9259598052
 20
186.1481094272
 30
0.0
 11
384.9259599542
 21
186.1481094272
 31
0.0
  0
LINE
  5
214
330
1F
100
AcDbEntity
  8
0
  6
Continuous
 62
     7
370
    15
100
AcDbLine
 10
349.9259598052
 20
186.1481094272
 30
0.0
 11
349.9259598052
 21
203.1481140764
 31
0.0
  0
LINE
  5
215
330
1F
100
AcDbEntity
  8
0
  6
Continuous
 62
     7
370
    15
100
AcDbLine
 10
349.9259598052
 20
203.1481140764
 30
0.0
 11
384.9259599542
 21
203.1481140764
 31
0.0
  0
LINE
  5
216
330
1F
100
AcDbEntity
  8
0
  6
Continuous
 62
     7
370
    15
100
AcDbLine
 10
339.9259600287
 20
186.1481094272
 30
0.0
 11
349.9259598052
 21
186.1481094272
 31
0.0
  0
LINE
  5
217
330
1F
100
AcDbEntity
  8
0
  6
Continuous
 62
     7
370
    15
100
AcDbLine
 10
339.9259600287
 20
186.1481094272
 30
0.0
 11
339.9259600287
 21
203.1481140764
 31
0.0
  0
LINE
  5
218
330
1F
100
AcDbEntity
  8
0
  6
Continuous
 62
     7
370
    15
100
AcDbLine
 10
339.9259600287
 20
203.1481140764
 30
0.0
 11
349.9259598052
 21
203.1481140764
 31
0.0
  0
LINE
  5
219
330
1F
100
AcDbEntity
  8
0
  6
Continuous
 62
     7
370
    15
100
AcDbLine
 10
279.9259595072
 20
186.1481094272
 30
0.0
 11
279.9259595072
 21
203.1481140764
 31
0.0
  0
LINE
  5
21A
330
1F
100
AcDbEntity
  8
0
  6
Continuous
 62
     7
370
    15
100
AcDbLine
 10
244.9259593581
 20
186.1481094272
 30
0.0
 11
279.9259595072
 21
186.1481094272
 31
0.0
  0
LINE
  5
21B
330
1F
100
AcDbEntity
  8
0
  6
Continuous
 62
     7
370
    15
100
AcDbLine
 10
244.9259593581
 20
186.1481094272
 30
0.0
 11
244.9259593581
 21
203.1481140764
 31
0.0
  0
LINE
  5
21C
330
1F
100
AcDbEntity
  8
0
  6
Continuous
 62
     7
370
    15
100
AcDbLine
 10
244.9259593581
 20
203.1481140764
 30
0.0
 11
279.9259595072
 21
203.1481140764
 31
0.0
  0
LINE
  5
21D
330
1F
100
AcDbEntity
  8
0
  6
Continuous
 62
     7
370
    15
100
AcDbLine
 10
289.9259592836
 20
186.1481094272
 30
0.0
 11
289.9259592836
 21
203.1481140764
 31
0.0
  0
LINE
  5
21E
330
1F
100
AcDbEntity
  8
0
  6
Continuous
 62
     7
370
    15
100
AcDbLine
 10
279.9259595072
 20
186.1481094272
 30
0.0
 11
289.9259592836
 21
186.1481094272
 31
0.0
  0
LINE
  5
21F
330
1F
100
AcDbEntity
  8
0
  6
Continuous
 62
     7
370
    15
100
AcDbLine
 10
279.9259595072
 20
203.1481140764
 30
0.0
 11
289.9259592836
 21
203.1481140764
 31
0.0
  0
LINE
  5
220
330
1F
100
AcDbEntity
  8
0
  6
Continuous
 62
     7
370
    15
100
AcDbLine
 10
339.9259600287
 20
-3.8518881886
 30
0.0
 11
339.9259600287
 21
-20.8518928377
 31
0.0
  0
LINE
  5
221
330
1F
100
AcDbEntity
  8
0
  6
Continuous
 62
     7
370
    15
100
AcDbLine
 10
339.9259600287
 20
-3.8518881886
 30
0.0
 11
349.9259598052
 21
-3.8518881886
 31
0.0
  0
LINE
  5
222
330
1F
100
AcDbEntity
  8
0
  6
Continuous
 62
     7
370
    15
100
AcDbLine
 10
349.9259598052
 20
-3.8518881886
 30
0.0
 11
349.9259598052
 21
-20.8518928377
 31
0.0
  0
LINE
  5
223
330
1F
100
AcDbEntity
  8
0
  6
Continuous
 62
     7
370
    15
100
AcDbLine
 10
339.9259600287
 20
-20.8518928377
 30
0.0
 11
349.9259598052
 21
-20.8518928377
 31
0.0
  0
LINE
  5
224
330
1F
100
AcDbEntity
  8
0
  6
Continuous
 62
     7
370
    15
100
AcDbLine
 10
244.9259593581
 20
-3.8518881886
 30
0.0
 11
244.9259593581
 21
-20.8518928377
 31
0.0
  0
LINE
  5
225
330
1F
100
AcDbEntity
  8
0
  6
Continuous
 62
     7
370
    15
100
AcDbLine
 10
244.9259593581
 20
-3.8518881886
 30
0.0
 11
279.9259595072
 21
-3.8518881886
 31
0.0
  0
LINE
  5
226
330
1F
100
AcDbEntity
  8
0
  6
Continuous
 62
     7
370
    15
100
AcDbLine
 10
279.9259595072
 20
-3.8518881886
 30
0.0
 11
279.9259595072
 21
-20.8518928377
 31
0.0
  0
LINE
  5
227
330
1F
100
AcDbEntity
  8
0
  6
Continuous
 62
     7
370
    15
100
AcDbLine
 10
244.9259593581
 20
-20.8518928377
 30
0.0
 11
279.9259595072
 21
-20.8518928377
 31
0.0
  0
LINE
  5
228
330
1F
100
AcDbEntity
  8
0
  6
Continuous
 62
     7
370
    15
100
AcDbLine
 10
279.9259595072
 20
-3.8518881886
 30
0.0
 11
289.9259592836
 21
-3.8518881886
 31
0.0
  0
LINE
  5
229
330
1F
100
AcDbEntity
  8
0
  6
Continuous
 62
     7
370
    15
100
AcDbLine
 10
289.9259592836
 20
-3.8518881886
 30
0.0
 11
289.9259592836
 21
-20.8518928377
 31
0.0
  0
LINE
  5
22A
330
1F
100
AcDbEntity
  8
0
  6
Continuous
 62
     7
370
    15
100
AcDbLine
 10
279.9259595072
 20
-20.8518928377
 30
0.0
 11
289.9259592836
 21
-20.8518928377
 31
0.0
  0
LINE
  5
22B
330
1F
100
AcDbEntity
  8
0
  6
Continuous
 62
     7
370
    15
100
AcDbLine
 10
349.9259598052
 20
-3.8518881886
 30
0.0
 11
384.9259599542
 21
-3.8518881886
 31
0.0
  0
LINE
  5
22C
330
1F
100
AcDbEntity
  8
0
  6
Continuous
 62
     7
370
    15
100
AcDbLine
 10
384.9259599542
 20
-3.8518881886
 30
0.0
 11
384.9259599542
 21
-20.8518928377
 31
0.0
  0
LINE
  5
22D
330
1F
100
AcDbEntity
  8
0
  6
Continuous
 62
     7
370
    15
100
AcDbLine
 10
349.9259598052
 20
-20.8518928377
 30
0.0
 11
384.9259599542
 21
-20.8518928377
 31
0.0
  0
LINE
  5
22E
330
1F
100
AcDbEntity
  8
0
  6
Continuous
 62
     7
370
    15
100
AcDbLine
 10
314.9259596562
 20
203.1481140764
 30
0.0
 11
314.9259596562
 21
186.1481094272
 31
0.0
  0
LINE
  5
22F
330
1F
100
AcDbEntity
  8
0
  6
Continuous
 62
     7
370
    15
100
AcDbLine
 10
319.9259595444
 20
203.1481140764
 30
0.0
 11
319.9259595444
 21
186.1481094272
 31
0.0
  0
LINE
  5
230
330
1F
100
AcDbEntity
  8
0
  6
Continuous
 62
     7
370
    15
100
AcDbLine
 10
319.9259595444
 20
186.1481094272
 30
0.0
 11
314.9259596562
 21
186.1481094272
 31
0.0
  0
LINE
  5
231
330
1F
100
AcDbEntity
  8
0
  6
Continuous
 62
     7
370
    15
100
AcDbLine
 10
314.9259596562
 20
203.1481140764
 30
0.0
 11
319.9259595444
 21
203.1481140764
 31
0.0
  0
LINE
  5
232
330
1F
100
AcDbEntity
  8
0
  6
Continuous
 62
     7
370
    15
100
AcDbLine
 10
309.9259597679
 20
203.1481140764
 30
0.0
 11
309.9259597679
 21
186.1481094272
 31
0.0
  0
LINE
  5
233
330
1F
100
AcDbEntity
  8
0
  6
Continuous
 62
     7
370
    15
100
AcDbLine
 10
314.9259596562
 20
186.1481094272
 30
0.0
 11
309.9259597679
 21
186.1481094272
 31
0.0
  0
LINE
  5
234
330
1F
100
AcDbEntity
  8
0
  6
Continuous
 62
     7
370
    15
100
AcDbLine
 10
309.9259597679
 20
203.1481140764
 30
0.0
 11
314.9259596562
 21
203.1481140764
 31
0.0
  0
LINE
  5
235
330
1F
100
AcDbEntity
  8
0
  6
Continuous
 62
     7
370
    15
100
AcDbLine
 10
289.9259592836
 20
186.1481094272
 30
0.0
 11
309.9259597679
 21
186.1481094272
 31
0.0
  0
LINE
  5
236
330
1F
100
AcDbEntity
  8
0
  6
Continuous
 62
     7
370
    15
100
AcDbLine
 10
289.9259592836
 20
203.1481140764
 30
0.0
 11
309.9259597679
 21
203.1481140764
 31
0.0
  0
LINE
  5
237
330
1F
100
AcDbEntity
  8
0
  6
Continuous
 62
     7
370
    15
100
AcDbLine
 10
319.9259595444
 20
186.1481094272
 30
0.0
 11
339.9259600287
 21
186.1481094272
 31
0.0
  0
LINE
  5
238
330
1F
100
AcDbEntity
  8
0
  6
Continuous
 62
     7
370
    15
100
AcDbLine
 10
319.9259595444
 20
203.1481140764
 30
0.0
 11
339.9259600287
 21
203.1481140764
 31
0.0
  0
LINE
  5
239
330
1F
100
AcDbEntity
  8
0
  6
Continuous
 62
     7
370
    15
100
AcDbLine
 10
309.9259597679
 20
-20.8518928377
 30
0.0
 11
309.9259597679
 21
-3.8518881886
 31
0.0
  0
LINE
  5
23A
330
1F
100
AcDbEntity
  8
0
  6
Continuous
 62
     7
370
    15
100
AcDbLine
 10
289.9259592836
 20
-20.8518928377
 30
0.0
 11
309.9259597679
 21
-20.8518928377
 31
0.0
  0
LINE
  5
23B
330
1F
100
AcDbEntity
  8
0
  6
Continuous
 62
     7
370
    15
100
AcDbLine
 10
289.9259592836
 20
-3.8518881886
 30
0.0
 11
309.9259597679
 21
-3.8518881886
 31
0.0
  0
LINE
  5
23C
330
1F
100
AcDbEntity
  8
0
  6
Continuous
 62
     7
370
    15
100
AcDbLine
 10
314.9259596562
 20
-3.8518881886
 30
0.0
 11
314.9259596562
 21
-20.8518928377
 31
0.0
  0
LINE
  5
23D
330
1F
100
AcDbEntity
  8
0
  6
Continuous
 62
     7
370
    15
100
AcDbLine
 10
314.9259596562
 20
-20.8518928377
 30
0.0
 11
309.9259597679
 21
-20.8518928377
 31
0.0
  0
LINE
  5
23E
330
1F
100
AcDbEntity
  8
0
  6
Continuous
 62
     7
370
    15
100
AcDbLine
 10
309.9259597679
 20
-3.8518881886
 30
0.0
 11
314.9259596562
 21
-3.8518881886
 31
0.0
  0
LINE
  5
23F
330
1F
100
AcDbEntity
  8
0
  6
Continuous
 62
     7
370
    15
100
AcDbLine
 10
319.9259595444
 20
-3.8518881886
 30
0.0
 11
319.9259595444
 21
-20.8518928377
 31
0.0
  0
LINE
  5
240
330
1F
100
AcDbEntity
  8
0
  6
Continuous
 62
     7
370
    15
100
AcDbLine
 10
319.9259595444
 20
-20.8518928377
 30
0.0
 11
339.9259600287
 21
-20.8518928377
 31
0.0
  0
LINE
  5
241
330
1F
100
AcDbEntity
  8
0
  6
Continuous
 62
     7
370
    15
100
AcDbLine
 10
319.9259595444
 20
-3.8518881886
 30
0.0
 11
339.9259600287
 21
-3.8518881886
 31
0.0
  0
LINE
  5
242
330
1F
100
AcDbEntity
  8
0
  6
Continuous
 62
     7
370
    15
100
AcDbLine
 10
319.9259595444
 20
-20.8518928377
 30
0.0
 11
314.9259596562
 21
-20.8518928377
 31
0.0
  0
LINE
  5
243
330
1F
100
AcDbEntity
  8
0
  6
Continuous
 62
     7
370
    15
100
AcDbLine
 10
314.9259596562
 20
-3.8518881886
 30
0.0
 11
319.9259595444
 21
-3.8518881886
 31
0.0
  0
LINE
  5
244
330
1F
100
AcDbEntity
  8
0
  6
Continuous
 62
     7
370
    15
100
AcDbLine
 10
484.8524093127
 20
186.1481094272
 30
0.0
 11
484.9259614443
 21
186.1481094272
 31
0.0
  0
LINE
  5
245
330
1F
100
AcDbEntity
  8
0
  6
Continuous
 62
     7
370
    15
100
AcDbLine
 10
484.4657837843
 20
186.1481094272
 30
0.0
 11
484.4657837843
 21
187.147485605
 31
0.0
  0
LINE
  5
246
330
1F
100
AcDbEntity
  8
0
  6
Continuous
 62
     7
370
    15
100
AcDbLine
 10
384.9259599542
 20
186.1481094272
 30
0.0
 11
484.4657837843
 21
186.1481094272
 31
0.0
  0
LINE
  5
247
330
1F
100
AcDbEntity
  8
0
  6
Continuous
 62
     7
370
    15
100
AcDbLine
 10
384.9259599542
 20
203.1481140764
 30
0.0
 11
484.9259614443
 21
203.1481140764
 31
0.0
  0
LINE
  5
248
330
1F
100
AcDbEntity
  8
0
  6
Continuous
 62
     7
370
    15
100
AcDbLine
 10
145.386135528
 20
187.147485605
 30
0.0
 11
145.386135528
 21
186.1481094272
 31
0.0
  0
LINE
  5
249
330
1F
100
AcDbEntity
  8
0
  6
Continuous
 62
     7
370
    15
100
AcDbLine
 10
144.925957868
 20
186.1481094272
 30
0.0
 11
144.9995099997
 21
186.1481094272
 31
0.0
  0
LINE
  5
24A
330
1F
100
AcDbEntity
  8
0
  6
Continuous
 62
     7
370
    15
100
AcDbLine
 10
145.386135528
 20
186.1481094272
 30
0.0
 11
244.9259593581
 21
186.1481094272
 31
0.0
  0
LINE
  5
24B
330
1F
100
AcDbEntity
  8
0
  6
Continuous
 62
     7
370
    15
100
AcDbLine
 10
144.925957868
 20
203.1481140764
 30
0.0
 11
244.9259593581
 21
203.1481140764
 31
0.0
  0
LINE
  5
24C
330
1F
100
AcDbEntity
  8
0
  6
Continuous
 62
     7
370
    15
100
AcDbLine
 10
144.925957868
 20
-3.8518881886
 30
0.0
 11
144.9995099997
 21
-3.8518881886
 31
0.0
  0
LINE
  5
24D
330
1F
100
AcDbEntity
  8
0
  6
Continuous
 62
     7
370
    15
100
AcDbLine
 10
145.386135528
 20
-3.8518881886
 30
0.0
 11
145.386135528
 21
-4.8512643664
 31
0.0
  0
LINE
  5
24E
330
1F
100
AcDbEntity
  8
0
  6
Continuous
 62
     7
370
    15
100
AcDbLine
 10
144.925957868
 20
-20.8518928377
 30
0.0
 11
244.9259593581
 21
-20.8518928377
 31
0.0
  0
LINE
  5
24F
330
1F
100
AcDbEntity
  8
0
  6
Continuous
 62
     7
370
    15
100
AcDbLine
 10
145.386135528
 20
-3.8518881886
 30
0.0
 11
244.9259593581
 21
-3.8518881886
 31
0.0
  0
LINE
  5
250
330
1F
100
AcDbEntity
  8
0
  6
Continuous
 62
     7
370
    15
100
AcDbLine
 10
484.4657837843
 20
-4.8512643664
 30
0.0
 11
484.4657837843
 21
-3.8518881886
 31
0.0
  0
LINE
  5
251
330
1F
100
AcDbEntity
  8
0
  6
Continuous
 62
     7
370
    15
100
AcDbLine
 10
484.8524093127
 20
-3.8518881886
 30
0.0
 11
484.9259614443
 21
-3.8518881886
 31
0.0
  0
LINE
  5
252
330
1F
100
AcDbEntity
  8
0
  6
Continuous
 62
     7
370
    15
100
AcDbLine
 10
384.9259599542
 20
-20.8518928377
 30
0.0
 11
484.9259614443
 21
-20.8518928377
 31
0.0
  0
LINE
  5
253
330
1F
100
AcDbEntity
  8
0
  6
Continuous
 62
     7
370
    15
100
AcDbLine
 10
384.9259599542
 20
-3.8518881886
 30
0.0
 11
484.4657837843
 21
-3.8518881886
 31
0.0
  0
SPLINE
  5
254
330
1F
100
AcDbEntity
  8
0
  6
Continuous
 62
     7
370
    15
100
AcDbSpline
210
0.0
220
0.0
230
1.0
 70
     8
 71
     3
 72
   102
 73
    98
 74
     0
 42
0.00000001
 43
0.00000001
 12
1.0
 22
0.0
 32
0.0
 13
1.0
 23
0.0
 33
0.0
 40
-0.03125
 40
-0.03125
 40
0.0
 40
0.0
 40
0.03125
 40
0.03125
 40
0.046875
 40
0.046875
 40
0.0625
 40
0.0625
 40
0.0937500000000001
 40
0.0937500000000001
 40
0.1093750000000001
 40
0.1093750000000001
 40
0.1250000000000001
 40
0.1250000000000001
 40
0.1562500000000001
 40
0.1562500000000001
 40
0.1718750000000001
 40
0.1718750000000001
 40
0.1875000000000001
 40
0.1875000000000001
 40
0.2031250000000001
 40
0.2031250000000001
 40
0.2187500000000001
 40
0.2187500000000001
 40
0.2500000000000002
 40
0.2500000000000002
 40
0.2656250000000002
 40
0.2656250000000002
 40
0.2812500000000002
 40
0.2812500000000002
 40
0.3125000000000002
 40
0.3125000000000002
 40
0.3281250000000002
 40
0.3281250000000002
 40
0.3437500000000002
 40
0.3437500000000002
 40
0.3750000000000002
 40
0.3750000000000002
 40
0.4062500000000002
 40
0.4062500000000002
 40
0.4218750000000002
 40
0.4218750000000002
 40
0.4375000000000001
 40
0.4375000000000001
 40
0.4687500000000002
 40
0.4687500000000002
 40
0.4843750000000003
 40
0.4843750000000003
 40
0.5000000000000003
 40
0.5000000000000003
 40
0.5312500000000004
 40
0.5312500000000004
 40
0.5468750000000004
 40
0.5468750000000004
 40
0.5625000000000004
 40
0.5625000000000004
 40
0.5781250000000004
 40
0.5781250000000004
 40
0.5937500000000004
 40
0.5937500000000004
 40
0.6250000000000003
 40
0.6250000000000003
 40
0.6406250000000003
 40
0.6406250000000003
 40
0.6562500000000003
 40
0.6562500000000003
 40
0.6875000000000003
 40
0.6875000000000003
 40
0.7031250000000003
 40
0.7031250000000003
 40
0.7187500000000003
 40
0.7187500000000003
 40
0.7500000000000002
 40
0.7500000000000002
 40
0.7812500000000001
 40
0.7812500000000001
 40
0.7968750000000001
 40
0.7968750000000001
 40
0.8125000000000001
 40
0.8125000000000001
 40
0.8437500000000001
 40
0.8437500000000001
 40
0.8593750000000001
 40
0.8593750000000001
 40
0.875
 40
0.875
 40
0.90625
 40
0.90625
 40
0.921875
 40
0.921875
 40
0.9375
 40
0.9375
 40
0.953125
 40
0.953125
 40
0.96875
 40
0.96875
 40
1.0
 40
1.0
 40
1.03125
 40
1.03125
 10
302.916431014573
 20
101.5725525568296
 30
0.0
 10
304.3926491573295
 20
103.0569391562959
 30
0.0
 10
305.1912244891138
 20
103.7145042036809
 30
0.0
 10
306.4764253739662
 20
104.579341131902
 30
0.0
 10
306.9194910520128
 20
104.8472147017795
 30
0.0
 10
307.8356965701374
 20
105.3412280708373
 30
0.0
 10
308.3104454905148
 20
105.5677527714971
 30
0.0
 10
309.7496185804914
 20
106.1694493091925
 30
0.0
 10
310.7378011400882
 20
106.4730614350932
 30
0.0
 10
312.2629936983279
 20
106.7833025269939
 30
0.0
 10
312.7803105426774
 20
106.8625144558639
 30
0.0
 10
313.8223612107429
 20
106.9694737790872
 30
0.0
 10
314.3419509022186
 20
106.9968736701645
 30
0.0
 10
315.8965476928428
 20
107.0033035819604
 30
0.0
 10
316.927421198843
 20
106.9072810586802
 30
0.0
 10
318.4652617171145
 20
106.6092887094947
 30
0.0
 10
318.9758785600629
 20
106.4838504522116
 30
0.0
 10
319.9716615209401
 20
106.1867947308484
 30
0.0
 10
320.4597409678643
 20
106.0146891661263
 30
0.0
 10
321.4166164298444
 20
105.62405481441
 30
0.0
 10
321.8854123034123
 20
105.4055258486804
 30
0.0
 10
322.803503966531
 20
104.921416001937
 30
0.0
 10
323.2551533256942
 20
104.6542035467511
 30
0.0
 10
324.5601323629867
 20
103.7922816047779
 30
0.0
 10
325.3618759906935
 20
103.1409227470364
 30
0.0
 10
326.4649763801795
 20
102.0513038259347
 30
0.0
 10
326.81596965779
 20
101.6691974574526
 30
0.0
 10
327.4835201170093
 20
100.8659089252958
 30
0.0
 10
327.7971649816972
 20
100.4479023037913
 30
0.0
 10
328.6678955899233
 20
99.16095538212187
 30
0.0
 10
329.1604937770437
 20
98.25342223542211
 30
0.0
 10
329.7662072678167
 20
96.81661773605687
 30
0.0
 10
329.946466046103
 20
96.32222709299309
 30
0.0
 10
330.2545100270873
 20
95.32644554664141
 30
0.0
 10
330.3830441745347
 20
94.82406558620661
 30
0.0
 10
330.6938754448448
 20
93.30373655884472
 30
0.0
 10
330.8021422043104
 20
92.27272666830028
 30
0.0
 10
330.8121390874728
 20
90.17422384786455
 30
0.0
 10
330.7135320968334
 20
89.14077735639212
 30
0.0
 10
330.4169556874166
 20
87.61720221588035
 30
0.0
 10
330.2931341826634
 20
87.11358284598404
 30
0.0
 10
329.9944814094014
 20
86.11499379065222
 30
0.0
 10
329.8188655172642
 20
85.61887202624621
 30
0.0
 10
329.2264512129794
 20
84.17592516104094
 30
0.0
 10
328.7421267898036
 20
83.26336192087238
 30
0.0
 10
327.8828192134504
 20
81.96755214556899
 30
0.0
 10
327.5725795910813
 20
81.54607101755295
 30
0.0
 10
326.9128979946648
 20
80.73718337641502
 30
0.0
 10
326.5656101172528
 20
80.35200682954964
 30
0.0
 10
325.4728960974822
 20
79.25246172261868
 30
0.0
 10
324.6771133199827
 20
78.59353551919695
 30
0.0
 10
323.379332534026
 20
77.71908343202993
 30
0.0
 10
322.9306175344416
 20
77.44802131711803
 30
0.0
 10
322.0176114974058
 20
76.95575086726461
 30
0.0
 10
321.5510988210005
 20
76.73299292640503
 30
0.0
 10
320.5982620202996
 20
76.33363886022211
 30
0.0
 10
320.1119381088425
 20
76.15704240144466
 30
0.0
 10
319.1191147485257
 20
75.85077054899118
 30
0.0
 10
318.6096801641738
 20
75.72057667252184
 30
0.0
 10
317.0748156775494
 20
75.40829278416955
 30
0.0
 10
316.0449751851154
 20
75.30267075070518
 30
0.0
 10
314.4905316518789
 20
75.29458941179857
 30
0.0
 10
313.9707587056036
 20
75.3171334347324
 30
0.0
 10
312.9278576295127
 20
75.41434081752874
 30
0.0
 10
312.4096397889941
 20
75.4887365350746
 30
0.0
 10
310.8812424375316
 20
75.78480737359037
 30
0.0
 10
309.8899305829015
 20
76.07930058198313
 30
0.0
 10
308.4445953346458
 20
76.66789704722285
 30
0.0
 10
307.9677082294518
 20
76.8900610596777
 30
0.0
 10
307.04716983904
 20
77.37546291922487
 30
0.0
 10
306.6016551913954
 20
77.63920213953499
 30
0.0
 10
305.3083255353261
 20
78.49220120294898
 30
0.0
 10
304.5021219057146
 20
79.14378213010798
 30
0.0
 10
303.0135187446215
 20
80.6133649826835
 30
0.0
 10
302.3531716058167
 20
81.40914716222952
 30
0.0
 10
301.4837569015901
 20
82.69133408219088
 30
0.0
 10
301.2142879022114
 20
83.13359156606248
 30
0.0
 10
300.717040701609
 20
84.04865864150968
 30
0.0
 10
300.4891345236519
 20
84.52257847733739
 30
0.0
 10
299.8835838367037
 20
85.95921358597951
 30
0.0
 10
299.5774488622564
 20
86.9464335251766
 30
0.0
 10
299.2640381384859
 20
88.4714449840468
 30
0.0
 10
299.183831959107
 20
88.9893841176592
 30
0.0
 10
299.0754373717495
 20
90.03062648062827
 30
0.0
 10
299.0474242974115
 20
90.54995506070263
 30
0.0
 10
299.0395569146363
 20
92.1041792590176
 30
0.0
 10
299.1351468629546
 20
93.13534849215887
 30
0.0
 10
299.4337423869962
 20
94.67444531838174
 30
0.0
 10
299.5593188867737
 20
95.18442508016821
 30
0.0
 10
299.856914120018
 20
96.17947411061296
 30
0.0
 10
300.0294174362763
 20
96.66728936512291
 30
0.0
 10
300.4211538770651
 20
97.62381780456472
 30
0.0
 10
300.6403869085971
 20
98.09253096265664
 30
0.0
 10
301.1262748745955
 20
99.0106182289564
 30
0.0
 10
301.3943662811539
 20
99.46199358089785
 30
0.0
 10
302.2594177707541
 20
100.7664480159199
 30
0.0
 10
302.916431014573
 20
101.5725525568296
 30
0.0
 10
304.3926491573295
 20
103.0569391562959
 30
0.0
  0
CIRCLE
  5
255
330
1F
100
AcDbEntity
  8
0
  6
Continuous
 62
     7
370
    15
100
AcDbCircle
 10
314.9259596562
 20
91.1481106193
 30
0.0
 40
15.0
  0
LINE
  5
256
330
1F
100
AcDbEntity
  8
0
  6
Continuous
 62
     7
370
    15
100
AcDbLine
 10
314.9259596562
 20
206.1481127055
 30
0.0
 11
447.9259609675
 21
206.1481127055
 31
0.0
  0
LINE
  5
257
330
1F
100
AcDbEntity
  8
0
  6
Continuous
 62
     7
370
    15
100
AcDbLine
 10
181.9259583449
 20
206.1481127055
 30
0.0
 11
314.9259596562
 21
206.1481127055
 31
0.0
  0
LINE
  5
258
330
1F
100
AcDbEntity
  8
0
  6
Continuous
 62
     7
370
    15
100
AcDbLine
 10
314.9259596562
 20
-23.8518914668
 30
0.0
 11
447.9259609675
 21
-23.8518914668
 31
0.0
  0
LINE
  5
259
330
1F
100
AcDbEntity
  8
0
  6
Continuous
 62
     7
370
    15
100
AcDbLine
 10
181.9259583449
 20
-23.8518914668
 30
0.0
 11
314.9259596562
 21
-23.8518914668
 31
0.0
  0
SPLINE
  5
25A
330
1F
100
AcDbEntity
  8
0
  6
Continuous
 62
     7
370
    15
100
AcDbSpline
210
0.0
220
0.0
230
1.0
 70
     8
 71
     3
 72
     8
 73
     4
 74
     0
 42
0.00000001
 43
0.00000001
 12
1.0
 22
0.0
 32
0.0
 13
1.0
 23
0.0
 33
0.0
 40
0.0
 40
0.0
 40
0.0
 40
0.0
 40
1.0
 40
1.0
 40
1.0
 40
1.0
 10
423.7101496839468
 20
149.0571654566973
 30
0.0
 10
428.239372328714
 20
161.4197554222628
 30
0.0
 10
432.765385587144
 20
173.7835226420898
 30
0.0
 10
437.2891485652507
 20
186.1481106193346
 30
0.0
  0
LINE
  5
25B
330
1F
100
AcDbEntity
  8
0
  6
Continuous
 62
     7
370
    15
100
AcDbLine
 10
206.1417683458
 20
149.0571671636
 30
0.0
 11
423.7101509666
 21
149.0571671636
 31
0.0
  0
SPLINE
  5
25C
330
1F
100
AcDbEntity
  8
0
  6
Continuous
 62
     7
370
    15
100
AcDbSpline
210
0.0
220
0.0
230
1.0
 70
     8
 71
     3
 72
     8
 73
     4
 74
     0
 42
0.00000001
 43
0.00000001
 12
1.0
 22
0.0
 32
0.0
 13
1.0
 23
0.0
 33
0.0
 40
0.0
 40
0.0
 40
0.0
 40
0.0
 40
1.0
 40
1.0
 40
1.0
 40
1.0
 10
192.5627707470842
 20
186.1481106193346
 30
0.0
 10
197.086533860311
 20
173.7835222727726
 30
0.0
 10
201.6125477778315
 20
161.4197532544517
 30
0.0
 10
206.1417696283881
 20
149.0571654566973
 30
0.0
  0
SPLINE
  5
25D
330
1F
100
AcDbEntity
  8
0
  6
Continuous
 62
     7
370
    15
100
AcDbSpline
210
0.0
220
0.0
230
1.0
 70
     8
 71
     3
 72
     8
 73
     4
 74
     0
 42
0.00000001
 43
0.00000001
 12
1.0
 22
0.0
 32
0.0
 13
1.0
 23
0.0
 33
0.0
 40
0.0
 40
0.0
 40
0.0
 40
0.0
 40
1.0
 40
1.0
 40
1.0
 40
1.0
 10
437.2891485652507
 20
-3.851889380665427
 30
0.0
 10
432.7653854520624
 20
8.512698965791376
 30
0.0
 10
428.2393715345987
 20
20.8764679839574
 30
0.0
 10
423.7101496839468
 20
33.23905578197187
 30
0.0
  0
SPLINE
  5
25E
330
1F
100
AcDbEntity
  8
0
  6
Continuous
 62
     7
370
    15
100
AcDbSpline
210
0.0
220
0.0
230
1.0
 70
     8
 71
     3
 72
     8
 73
     4
 74
     0
 42
0.00000001
 43
0.00000001
 12
1.0
 22
0.0
 32
0.0
 13
1.0
 23
0.0
 33
0.0
 40
0.0
 40
0.0
 40
0.0
 40
0.0
 40
1.0
 40
1.0
 40
1.0
 40
1.0
 10
206.1417696283881
 20
33.23905578197193
 30
0.0
 10
201.6125469836635
 20
20.87646581652264
 30
0.0
 10
197.0865337252059
 20
8.512698596620266
 30
0.0
 10
192.5627707470842
 20
-3.851889380665413
 30
0.0
  0
LINE
  5
25F
330
1F
100
AcDbEntity
  8
0
  6
Continuous
 62
     7
370
    15
100
AcDbLine
 10
206.1417683458
 20
33.239054075
 30
0.0
 11
423.7101509666
 21
33.239054075
 31
0.0
  0
SPLINE
  5
260
330
1F
100
AcDbEntity
  8
0
  6
Continuous
 62
     7
370
    15
100
AcDbSpline
210
0.0
220
0.0
230
1.0
 70
     8
 71
     3
 72
    26
 73
    22
 74
     0
 42
0.00000001
 43
0.00000001
 12
1.0
 22
0.0
 32
0.0
 13
1.0
 23
0.0
 33
0.0
 40
0.0
 40
0.0
 40
0.0
 40
0.0
 40
0.0624999999999999
 40
0.0624999999999999
 40
0.1249999999999999
 40
0.1249999999999999
 40
0.2499999999999999
 40
0.2499999999999999
 40
0.3749999999999998
 40
0.3749999999999998
 40
0.4999999999999997
 40
0.4999999999999997
 40
0.6249999999999996
 40
0.6249999999999996
 40
0.6874999999999996
 40
0.6874999999999996
 40
0.7499999999999996
 40
0.7499999999999996
 40
0.8749999999999998
 40
0.8749999999999998
 40
1.0
 40
1.0
 40
1.0
 40
1.0
 10
210.853743147464
 20
98.64811061933459
 30
0.0
 10
210.7988992134811
 20
99.29738071101043
 30
0.0
 10
210.7372474072625
 20
99.9426311576288
 30
0.0
 10
210.6008148967727
 20
101.2249566568014
 30
0.0
 10
210.5265219912082
 20
101.8572213058014
 30
0.0
 10
210.2886227452121
 20
103.7165409446515
 30
0.0
 10
210.1094877707526
 20
104.9113687902702
 30
0.0
 10
209.7194722261713
 20
107.214861071438
 30
0.0
 10
209.5083331958405
 20
108.324642034885
 30
0.0
 10
209.0639231444513
 20
110.4519192243174
 30
0.0
 10
208.8351013871031
 20
111.4487094367163
 30
0.0
 10
208.3743595094992
 20
113.315317047072
 30
0.0
 10
208.1424058308843
 20
114.1851128948663
 30
0.0
 10
207.7991204106338
 20
115.3939106193777
 30
0.0
 10
207.6853623385174
 20
115.7811360479584
 30
0.0
 10
207.4609799703508
 20
116.5213062472108
 30
0.0
 10
207.3514060678322
 20
116.8708242614213
 30
0.0
 10
207.0318939392254
 20
117.8592336062499
 30
0.0
 10
206.8311693760917
 20
118.4382548091074
 30
0.0
 10
206.4611652841799
 20
119.4377365620079
 30
0.0
 10
206.2918612012332
 20
119.8582244633122
 30
0.0
 10
206.1417696283881
 20
120.1954857158902
 30
0.0
  0
LINE
  5
261
330
1F
100
AcDbEntity
  8
0
  6
Continuous
 62
     7
370
    15
100
AcDbLine
 10
206.1417683458
 20
149.0571671636
 30
0.0
 11
206.1417683458
 21
120.1954861642
 31
0.0
  0
LINE
  5
262
330
1F
100
AcDbEntity
  8
0
  6
Continuous
 62
     7
370
    15
100
AcDbLine
 10
423.7101509666
 20
120.1954861642
 30
0.0
 11
423.7101509666
 21
149.0571671636
 31
0.0
  0
SPLINE
  5
263
330
1F
100
AcDbEntity
  8
0
  6
Continuous
 62
     7
370
    15
100
AcDbSpline
210
0.0
220
0.0
230
1.0
 70
     8
 71
     3
 72
    30
 73
    26
 74
     0
 42
0.00000001
 43
0.00000001
 12
1.0
 22
0.0
 32
0.0
 13
1.0
 23
0.0
 33
0.0
 40
0.0
 40
0.0
 40
0.0
 40
0.0
 40
0.0625000000000001
 40
0.0625000000000001
 40
0.1250000000000001
 40
0.1250000000000001
 40
0.2500000000000001
 40
0.2500000000000001
 40
0.3125
 40
0.3125
 40
0.3749999999999999
 40
0.3749999999999999
 40
0.4999999999999997
 40
0.4999999999999997
 40
0.6249999999999994
 40
0.6249999999999994
 40
0.6874999999999996
 40
0.6874999999999996
 40
0.7499999999999996
 40
0.7499999999999996
 40
0.875
 40
0.875
 40
0.9375
 40
0.9375
 40
1.0
 40
1.0
 40
1.0
 40
1.0
 10
423.7101496839468
 20
120.1954857158902
 30
0.0
 10
423.6353176045769
 20
120.0273352971629
 30
0.0
 10
423.5547825274097
 20
119.8362375154016
 30
0.0
 10
423.3855960171759
 20
119.4147207551442
 30
0.0
 10
423.2966783723775
 20
119.1837364121571
 30
0.0
 10
423.0183163293149
 20
118.4314296114183
 30
0.0
 10
422.8172567728744
 20
117.851027497922
 30
0.0
 10
422.4978113263074
 20
116.8622831555072
 30
0.0
 10
422.3883537412665
 20
116.5129430084771
 30
0.0
 10
422.1644187867334
 20
115.773913389829
 30
0.0
 10
422.0501459767839
 20
115.3847860260408
 30
0.0
 10
421.7063532605943
 20
114.1735427166632
 30
0.0
 10
421.4743159071042
 20
113.30279496424
 30
0.0
 10
421.0139255820403
 20
111.4363634048609
 30
0.0
 10
420.7855397459455
 20
110.4406933838905
 30
0.0
 10
420.4532149201015
 20
108.8491375927408
 30
0.0
 10
420.3442576770765
 20
108.3024263693298
 30
0.0
 10
420.1342686593654
 20
107.1922824715928
 30
0.0
 10
420.0328136129725
 20
106.6268778717255
 30
0.0
 10
419.7406499123328
 20
104.8998964818431
 30
0.0
 10
419.5621155368801
 20
103.707692312249
 30
0.0
 10
419.3253220104622
 20
101.8564410037872
 30
0.0
 10
419.2515644085944
 20
101.2288319154855
 30
0.0
 10
419.1156051986932
 20
99.9518467914781
 30
0.0
 10
419.0533066039833
 20
99.30077250292291
 30
0.0
 10
418.9981761648709
 20
98.64811061933457
 30
0.0
  0
LINE
  5
264
330
1F
100
AcDbEntity
  8
0
  6
Continuous
 62
     7
370
    15
100
AcDbLine
 10
413.5869949555
 20
83.648110787
 30
0.0
 11
413.5869949555
 21
98.6481104517
 31
0.0
  0
SPLINE
  5
265
330
1F
100
AcDbEntity
  8
0
  6
Continuous
 62
     7
370
    15
100
AcDbSpline
210
0.0
220
0.0
230
1.0
 70
     8
 71
     3
 72
    26
 73
    22
 74
     0
 42
0.00000001
 43
0.00000001
 12
1.0
 22
0.0
 32
0.0
 13
1.0
 23
0.0
 33
0.0
 40
0.0
 40
0.0
 40
0.0
 40
0.0
 40
0.0625
 40
0.0625
 40
0.125
 40
0.125
 40
0.2499999999999999
 40
0.2499999999999999
 40
0.3749999999999998
 40
0.3749999999999998
 40
0.4999999999999997
 40
0.4999999999999997
 40
0.6249999999999996
 40
0.6249999999999996
 40
0.6874999999999996
 40
0.6874999999999996
 40
0.7499999999999996
 40
0.7499999999999996
 40
0.8749999999999998
 40
0.8749999999999998
 40
1.0
 40
1.0
 40
1.0
 40
1.0
 10
418.9981761648709
 20
83.64811061933459
 30
0.0
 10
419.0530200988538
 20
82.99884052765876
 30
0.0
 10
419.1146719050724
 20
82.35359008104038
 30
0.0
 10
419.2511044155622
 20
81.07126458186774
 30
0.0
 10
419.3253973211267
 20
80.43899993286782
 30
0.0
 10
419.5632965671229
 20
78.57968029401763
 30
0.0
 10
419.7424315415823
 20
77.38485244839893
 30
0.0
 10
420.1324470861636
 20
75.08136016723121
 30
0.0
 10
420.3435861164945
 20
73.97157920378413
 30
0.0
 10
420.7879961678836
 20
71.84430201435177
 30
0.0
 10
421.0168179252318
 20
70.84751180195292
 30
0.0
 10
421.4775598028357
 20
68.9809041915972
 30
0.0
 10
421.7095134814506
 20
68.11110834380291
 30
0.0
 10
422.0527989017011
 20
66.9023106192915
 30
0.0
 10
422.1665569738175
 20
66.51508519071075
 30
0.0
 10
422.3909393419841
 20
65.77491499145837
 30
0.0
 10
422.5005132445028
 20
65.42539697724783
 30
0.0
 10
422.8200253731096
 20
64.4369876324193
 30
0.0
 10
423.0207499362433
 20
63.85796642956173
 30
0.0
 10
423.3907540281551
 20
62.85848467666131
 30
0.0
 10
423.5600581111017
 20
62.43799677535701
 30
0.0
 10
423.7101496839468
 20
62.10073552277895
 30
0.0
  0
LINE
  5
266
330
1F
100
AcDbEntity
  8
0
  6
Continuous
 62
     7
370
    15
100
AcDbLine
 10
423.7101509666
 20
33.239054075
 30
0.0
 11
423.7101509666
 21
62.1007350744
 31
0.0
  0
LINE
  5
267
330
1F
100
AcDbEntity
  8
0
  6
Continuous
 62
     7
370
    15
100
AcDbLine
 10
206.1417683458
 20
62.1007350744
 30
0.0
 11
206.1417683458
 21
33.239054075
 31
0.0
  0
SPLINE
  5
268
330
1F
100
AcDbEntity
  8
0
  6
Continuous
 62
     7
370
    15
100
AcDbSpline
210
0.0
220
0.0
230
1.0
 70
     8
 71
     3
 72
    30
 73
    26
 74
     0
 42
0.00000001
 43
0.00000001
 12
1.0
 22
0.0
 32
0.0
 13
1.0
 23
0.0
 33
0.0
 40
0.0
 40
0.0
 40
0.0
 40
0.0
 40
0.0625000000000001
 40
0.0625000000000001
 40
0.1250000000000001
 40
0.1250000000000001
 40
0.2500000000000001
 40
0.2500000000000001
 40
0.3125
 40
0.3125
 40
0.3749999999999999
 40
0.3749999999999999
 40
0.4999999999999997
 40
0.4999999999999997
 40
0.6249999999999994
 40
0.6249999999999994
 40
0.6874999999999996
 40
0.6874999999999996
 40
0.7499999999999996
 40
0.7499999999999996
 40
0.875
 40
0.875
 40
0.9375
 40
0.9375
 40
1.0
 40
1.0
 40
1.0
 40
1.0
 10
206.1417696283881
 20
62.10073552277895
 30
0.0
 10
206.2166017077581
 20
62.26888594150628
 30
0.0
 10
206.2971367849252
 20
62.45998372326759
 30
0.0
 10
206.4663232951589
 20
62.88150048352499
 30
0.0
 10
206.5552409399574
 20
63.1124848265121
 30
0.0
 10
206.8336029830201
 20
63.86479162725091
 30
0.0
 10
207.0346625394605
 20
64.44519374074716
 30
0.0
 10
207.3541079860275
 20
65.43393808316193
 30
0.0
 10
207.4635655710684
 20
65.7832782301921
 30
0.0
 10
207.6875005256015
 20
66.52230784884017
 30
0.0
 10
207.801773335551
 20
66.91143521262832
 30
0.0
 10
208.1455660517406
 20
68.12267852200601
 30
0.0
 10
208.3776034052307
 20
68.99342627442913
 30
0.0
 10
208.8379937302946
 20
70.85985783380823
 30
0.0
 10
209.0663795663894
 20
71.85552785477866
 30
0.0
 10
209.3987043922334
 20
73.44708364592832
 30
0.0
 10
209.5076616352584
 20
73.99379486933941
 30
0.0
 10
209.7176506529696
 20
75.10393876707633
 30
0.0
 10
209.8191056993624
 20
75.66934336694368
 30
0.0
 10
210.1112694000021
 20
77.39632475682609
 30
0.0
 10
210.2898037754549
 20
78.58852892642018
 30
0.0
 10
210.5265973018726
 20
80.43978023488197
 30
0.0
 10
210.6003549037405
 20
81.06738932318372
 30
0.0
 10
210.7363141136417
 20
82.34437444719106
 30
0.0
 10
210.7986127083516
 20
82.99544873574627
 30
0.0
 10
210.853743147464
 20
83.6481106193346
 30
0.0
  0
LINE
  5
269
330
1F
100
AcDbEntity
  8
0
  6
Continuous
 62
     7
370
    15
100
AcDbLine
 10
216.2649243569
 20
98.6481104517
 30
0.0
 11
216.2649243569
 21
83.648110787
 31
0.0
  0
SPLINE
  5
26A
330
1F
100
AcDbEntity
  8
0
  6
Continuous
 62
     7
370
    15
100
AcDbSpline
210
0.0
220
0.0
230
1.0
 70
     8
 71
     3
 72
    20
 73
    16
 74
     0
 42
0.00000001
 43
0.00000001
 12
1.0
 22
0.0
 32
0.0
 13
1.0
 23
0.0
 33
0.0
 40
0.0
 40
0.0
 40
0.0
 40
0.0
 40
0.2945910772615289
 40
0.2945910772615289
 40
0.2945910772615289
 40
0.572416511373388
 40
0.572416511373388
 40
0.572416511373388
 40
0.7614685195881445
 40
0.7614685195881445
 40
0.7614685195881445
 40
0.9520892366730355
 40
0.9520892366730355
 40
0.9520892366730355
 40
1.0
 40
1.0
 40
1.0
 40
1.0
 10
335.6964469696543
 20
115.7961106193346
 30
0.0
 10
335.6565455623521
 20
115.7961106193346
 30
0.0
 10
335.6159630089671
 20
115.7888925599561
 30
0.0
 10
335.578613093149
 20
115.7745721708719
 30
0.0
 10
335.5434431027869
 20
115.7610875903837
 30
0.0
 10
335.5098977304061
 20
115.7407266406301
 30
0.0
 10
335.4825369246195
 20
115.7144887714077
 30
0.0
 10
335.4637658655228
 20
115.696488110258
 30
0.0
 10
335.4474430000454
 20
115.6752467092779
 30
0.0
 10
335.4354172921249
 20
115.6520223138679
 30
0.0
 10
335.4233323873942
 20
115.6286835958635
 30
0.0
 10
335.415313677449
 20
115.602581008799
 30
0.0
 10
335.4126768786567
 20
115.5763351415744
 30
0.0
 10
335.4120022283835
 20
115.569619884596
 30
0.0
 10
335.411662753224
 20
115.5628609037231
 30
0.0
 10
335.411662753224
 20
115.5561106193346
 30
0.0
  0
LINE
  5
26B
330
1F
100
AcDbEntity
  8
0
  6
Continuous
 62
     7
370
    15
100
AcDbLine
 10
335.4116625582
 20
97.8604737209
 30
0.0
 11
335.4116625582
 21
115.5561102094
 31
0.0
  0
SPLINE
  5
26C
330
1F
100
AcDbEntity
  8
0
  6
Continuous
 62
     7
370
    15
100
AcDbSpline
210
0.0
220
0.0
230
1.0
 70
     8
 71
     3
 72
    17
 73
    13
 74
     0
 42
0.00000001
 43
0.00000001
 12
1.0
 22
0.0
 32
0.0
 13
1.0
 23
0.0
 33
0.0
 40
0.0
 40
0.0
 40
0.0
 40
0.0
 40
0.233060774874302
 40
0.233060774874302
 40
0.233060774874302
 40
0.4650305328555684
 40
0.4650305328555684
 40
0.4650305328555684
 40
0.711836300133719
 40
0.711836300133719
 40
0.711836300133719
 40
1.0
 40
1.0
 40
1.0
 40
1.0
 10
335.4116627532239
 20
97.86047349243522
 30
0.0
 10
335.4116627532239
 20
97.83697537442283
 30
0.0
 10
335.4159217384297
 20
97.8131497227223
 30
0.0
 10
335.4238409677885
 20
97.79107779676886
 30
0.0
 10
335.4317392866132
 20
97.76906415120354
 30
0.0
 10
335.4434303741776
 20
97.74820181452725
 30
0.0
 10
335.45764543508
 20
97.72976765110965
 30
0.0
 10
335.4727839962545
 20
97.71013588783316
 30
0.0
 10
335.4910957512143
 20
97.69277317535897
 30
0.0
 10
335.5110846791101
 20
97.67832541560897
 30
0.0
 10
335.5343999499131
 20
97.66147341470003
 30
0.0
 10
335.560498910974
 20
97.64818513207345
 30
0.0
 10
335.5875422452063
 20
97.63874240463252
 30
0.0
  0
SPLINE
  5
26D
330
1F
100
AcDbEntity
  8
0
  6
Continuous
 62
     7
370
    15
100
AcDbSpline
210
0.0
220
0.0
230
1.0
 70
     8
 71
     3
 72
    21
 73
    17
 74
     0
 42
0.00000001
 43
0.00000001
 12
1.0
 22
0.0
 32
0.0
 13
1.0
 23
0.0
 33
0.0
 40
0.0
 40
0.0
 40
0.0
 40
0.0
 40
0.055299677264327
 40
0.1106180460651515
 40
0.1659591402804946
 40
0.2213269888213329
 40
0.2767256147614494
 40
0.3321590344736316
 40
0.3876312567731126
 40
0.4431462820691648
 40
0.49870810152571
 40
0.5987790081020588
 40
0.6989205534522693
 40
0.7991558693449856
 40
0.8995080227048664
 40
1.0
 40
1.0
 40
1.0
 40
1.0
 10
335.5875422452064
 20
97.63874240463251
 30
0.0
 10
335.9043331457492
 20
97.52788221494146
 30
0.0
 10
336.5380220235661
 20
97.30612436432295
 30
0.0
 10
337.4858661830743
 20
96.97119458409739
 30
0.0
 10
338.4319101683268
 20
96.63452764508686
 30
0.0
 10
339.3759524885077
 20
96.2959616344487
 30
0.0
 10
340.3180471490802
 20
95.95553998156818
 30
0.0
 10
341.2581796556187
 20
95.6132510136482
 30
0.0
 10
342.1963538606287
 20
95.26909799789064
 30
0.0
 10
343.1325687799813
 20
94.9230795829001
 30
0.0
 10
344.3160029391845
 20
94.4824132376064
 30
0.0
 10
345.7435234292988
 20
93.94527898681241
 30
0.0
 10
347.4109253986211
 20
93.30948898985359
 30
0.0
 10
349.0698022375408
 20
92.6683077302882
 30
0.0
 10
350.7211457573287
 20
92.02212150626752
 30
0.0
 10
351.813697578255
 20
91.5873691956622
 30
0.0
 10
352.3603537958115
 20
91.36984170713728
 30
0.0
  0
SPLINE
  5
26E
330
1F
100
AcDbEntity
  8
0
  6
Continuous
 62
     7
370
    15
100
AcDbSpline
210
0.0
220
0.0
230
1.0
 70
     8
 71
     3
 72
    29
 73
    25
 74
     0
 42
0.00000001
 43
0.00000001
 12
1.0
 22
0.0
 32
0.0
 13
1.0
 23
0.0
 33
0.0
 40
0.0
 40
0.0
 40
0.0
 40
0.0
 40
0.1522469061250049
 40
0.1522469061250049
 40
0.1522469061250049
 40
0.3052760049059958
 40
0.3052760049059958
 40
0.3052760049059958
 40
0.4465371940091676
 40
0.4465371940091676
 40
0.4465371940091676
 40
0.5758489395370532
 40
0.5758489395370532
 40
0.5758489395370532
 40
0.7011657864940143
 40
0.7011657864940143
 40
0.7011657864940143
 40
0.8305026150156863
 40
0.8305026150156863
 40
0.8305026150156863
 40
0.9698758808212175
 40
0.9698758808212175
 40
0.9698758808212175
 40
1.0
 40
1.0
 40
1.0
 40
1.0
 10
352.3603537958114
 20
91.3698417071373
 30
0.0
 10
352.3863856884866
 20
91.35944343827829
 30
0.0
 10
352.4112073648694
 20
91.34440625350761
 30
0.0
 10
352.4326460461971
 20
91.32557129605925
 30
0.0
 10
352.454148445729
 20
91.30668035897072
 30
0.0
 10
352.4728540066336
 20
91.28335181225135
 30
0.0
 10
352.4865629378794
 20
91.25751230863611
 30
0.0
 10
352.4992272224421
 20
91.23364182443318
 30
0.0
 10
352.5079867457816
 20
91.2068768935944
 30
0.0
 10
352.5117231834552
 20
91.17975225068176
 30
0.0
 10
352.5151511866211
 20
91.15486668589935
 30
0.0
 10
352.5144569895397
 20
91.12896830481986
 30
0.0
 10
352.5097215623315
 20
91.10432701454965
 30
0.0
 10
352.505125383163
 20
91.0804103160041
 30
0.0
 10
352.4966255988298
 20
91.05704189459344
 30
0.0
 10
352.4850767196678
 20
91.03595177422685
 30
0.0
 10
352.4731515592804
 20
91.01417450351218
 30
0.0
 10
352.4577017449019
 20
90.99426907985018
 30
0.0
 10
352.440066841081
 20
90.97744420648301
 30
0.0
 10
352.4210701823537
 20
90.95932012819296
 30
0.0
 10
352.399088901107
 20
90.94430980973772
 30
0.0
 10
352.3758210295396
 20
90.93316373589191
 30
0.0
 10
352.370736086316
 20
90.93072788126261
 30
0.0
 10
352.3655747621059
 20
90.92846501228853
 30
0.0
 10
352.3603537958114
 20
90.92637953153188
 30
0.0
  0
SPLINE
  5
26F
330
1F
100
AcDbEntity
  8
0
  6
Continuous
 62
     7
370
    15
100
AcDbSpline
210
0.0
220
0.0
230
1.0
 70
     8
 71
     3
 72
    21
 73
    17
 74
     0
 42
0.00000001
 43
0.00000001
 12
1.0
 22
0.0
 32
0.0
 13
1.0
 23
0.0
 33
0.0
 40
0.0
 40
0.0
 40
0.0
 40
0.0
 40
0.0558419958317874
 40
0.1116391602309752
 40
0.1673954241249802
 40
0.2231147270976587
 40
0.2788010165773828
 40
0.3344582470168623
 40
0.3900903790655481
 40
0.4457013787354574
 40
0.5012952165613014
 40
0.6012625472637141
 40
0.7010933042886593
 40
0.8008108361249457
 40
0.9004385708668678
 40
1.0
 40
1.0
 40
1.0
 40
1.0
 10
352.3603537958114
 20
90.92637953153186
 30
0.0
 10
352.056846562527
 20
90.80540255809342
 30
0.0
 10
351.4500757595998
 20
90.56354573473357
 30
0.0
 10
350.5360365713104
 20
90.20258632834516
 30
0.0
 10
349.6196495429015
 20
89.84316186037721
 30
0.0
 10
348.700607348542
 20
89.48539145554274
 30
0.0
 10
347.7789922845661
 20
89.12924323461364
 30
0.0
 10
346.854782259389
 20
88.7747257435931
 30
0.0
 10
345.9279834926396
 20
88.42183668400804
 30
0.0
 10
344.9985932581103
 20
88.07057674524141
 30
0.0
 10
343.8185889728713
 20
87.62789801518505
 30
0.0
 10
342.3854378647361
 20
87.0958367393357
 30
0.0
 10
340.6959980390237
 20
86.4769851856538
 30
0.0
 10
338.9999876704104
 20
85.86425854498717
 30
0.0
 10
337.298062865239
 20
85.25713247850953
 30
0.0
 10
336.1575892391799
 20
84.85731901921406
 30
0.0
 10
335.5875422452064
 20
84.65747883403668
 30
0.0
  0
SPLINE
  5
270
330
1F
100
AcDbEntity
  8
0
  6
Continuous
 62
     7
370
    15
100
AcDbSpline
210
0.0
220
0.0
230
1.0
 70
     8
 71
     3
 72
    17
 73
    13
 74
     0
 42
0.00000001
 43
0.00000001
 12
1.0
 22
0.0
 32
0.0
 13
1.0
 23
0.0
 33
0.0
 40
0.0
 40
0.0
 40
0.0
 40
0.0
 40
0.3277039730680147
 40
0.3277039730680147
 40
0.3277039730680147
 40
0.6019571452994742
 40
0.6019571452994742
 40
0.6019571452994742
 40
0.8788698412764401
 40
0.8788698412764401
 40
0.8788698412764401
 40
1.0
 40
1.0
 40
1.0
 40
1.0
 10
335.5875422452063
 20
84.65747883403665
 30
0.0
 10
335.5568580345153
 20
84.64676482089737
 30
0.0
 10
335.5273257073231
 20
84.63105009026914
 30
0.0
 10
335.5016950016299
 20
84.61079934192087
 30
0.0
 10
335.4802129199479
 20
84.59382640971424
 30
0.0
 10
335.4609661891031
 20
84.5732083846825
 30
0.0
 10
335.4460681398873
 20
84.5500476238964
 30
0.0
 10
335.4310854854545
 20
84.52675533440052
 30
0.0
 10
335.4201316211697
 20
84.50007407282557
 30
0.0
 10
335.4150649975635
 20
84.47271390381088
 30
0.0
 10
335.4128128441392
 20
84.46055209683156
 30
0.0
 10
335.4116627532239
 20
84.44812376237003
 30
0.0
 10
335.4116627532239
 20
84.43574774623397
 30
0.0
  0
LINE
  5
271
330
1F
100
AcDbEntity
  8
0
  6
Continuous
 62
     7
370
    15
100
AcDbLine
 10
335.4116625582
 20
68.0361097218
 30
0.0
 11
335.4116625582
 21
84.4357475178
 31
0.0
  0
SPLINE
  5
272
330
1F
100
AcDbEntity
  8
0
  6
Continuous
 62
     7
370
    15
100
AcDbSpline
210
0.0
220
0.0
230
1.0
 70
     8
 71
     3
 72
    20
 73
    16
 74
     0
 42
0.00000001
 43
0.00000001
 12
1.0
 22
0.0
 32
0.0
 13
1.0
 23
0.0
 33
0.0
 40
0.0
 40
0.0
 40
0.0
 40
0.0
 40
0.1698166797313738
 40
0.1698166797313738
 40
0.1698166797313738
 40
0.3388384042996136
 40
0.3388384042996136
 40
0.3388384042996136
 40
0.5186701926403929
 40
0.5186701926403929
 40
0.5186701926403929
 40
0.7284881147646343
 40
0.7284881147646343
 40
0.7284881147646343
 40
1.0
 40
1.0
 40
1.0
 40
1.0
 10
335.411662753224
 20
68.0361106193346
 30
0.0
 10
335.411662753224
 20
68.01261250132221
 30
0.0
 10
335.4159217384297
 20
67.98878684962168
 30
0.0
 10
335.4238409677885
 20
67.96671492366822
 30
0.0
 10
335.4317392866132
 20
67.94470127810291
 30
0.0
 10
335.4434303741775
 20
67.9238389414266
 30
0.0
 10
335.4576454350799
 20
67.905404778009
 30
0.0
 10
335.4727839962545
 20
67.88577301473251
 30
0.0
 10
335.4910957512143
 20
67.86841030225834
 30
0.0
 10
335.5110846791101
 20
67.85396254250831
 30
0.0
 10
335.5343837661417
 20
67.8371222390372
 30
0.0
 10
335.5604625488033
 20
67.8238407280674
 30
0.0
 10
335.5874853760054
 20
67.8143993946317
 30
0.0
 10
335.6223068670279
 20
67.80223333572854
 30
0.0
 10
335.6596400371736
 20
67.79611061933458
 30
0.0
 10
335.6964469696543
 20
67.79611061933458
 30
0.0
  0
SPLINE
  5
273
330
1F
100
AcDbEntity
  8
0
  6
Continuous
 62
     7
370
    15
100
AcDbSpline
210
0.0
220
0.0
230
1.0
 70
     8
 71
     3
 72
    17
 73
    13
 74
     0
 42
0.00000001
 43
0.00000001
 12
1.0
 22
0.0
 32
0.0
 13
1.0
 23
0.0
 33
0.0
 40
0.0
 40
0.0
 40
0.0
 40
0.0
 40
0.3032608590225437
 40
0.3032608590225437
 40
0.3032608590225437
 40
0.5637856715424642
 40
0.5637856715424642
 40
0.5637856715424642
 40
0.7950633073663453
 40
0.7950633073663453
 40
0.7950633073663453
 40
1.0
 40
1.0
 40
1.0
 40
1.0
 10
343.2506764366572
 20
115.7961106193346
 30
0.0
 10
343.2112947873528
 20
115.7961106193346
 30
0.0
 10
343.1711213860009
 20
115.7881074869562
 30
0.0
 10
343.1347436411797
 20
115.7724638405529
 30
0.0
 10
343.1034129991138
 20
115.7589906170622
 30
0.0
 10
343.0738110381293
 20
115.7393337656639
 30
0.0
 10
343.0496009601095
 20
115.7147290971163
 30
0.0
 10
343.0281015631409
 20
115.6928792899429
 30
0.0
 10
343.0101691581053
 20
115.6662892345645
 30
0.0
 10
342.9985712652986
 20
115.6375088894627
 30
0.0
 10
342.988275238208
 20
115.6119591436785
 30
0.0
 10
342.9826702271487
 20
115.5837919368992
 30
0.0
 10
342.9826702271487
 20
115.5561106193346
 30
0.0
  0
LINE
  5
274
330
1F
100
AcDbEntity
  8
0
  6
Continuous
 62
     7
370
    15
100
AcDbLine
 10
342.9826706146
 20
110.9922496141
 30
0.0
 11
342.9826706146
 21
115.5561102094
 31
0.0
  0
SPLINE
  5
275
330
1F
100
AcDbEntity
  8
0
  6
Continuous
 62
     7
370
    15
100
AcDbSpline
210
0.0
220
0.0
230
1.0
 70
     8
 71
     3
 72
    20
 73
    16
 74
     0
 42
0.00000001
 43
0.00000001
 12
1.0
 22
0.0
 32
0.0
 13
1.0
 23
0.0
 33
0.0
 40
0.0
 40
0.0
 40
0.0
 40
0.0
 40
0.1749280806812176
 40
0.1749280806812176
 40
0.1749280806812176
 40
0.3492159269725948
 40
0.3492159269725948
 40
0.3492159269725948
 40
0.532641800288065
 40
0.532641800288065
 40
0.532641800288065
 40
0.7399408101770336
 40
0.7399408101770336
 40
0.7399408101770336
 40
1.0
 40
1.0
 40
1.0
 40
1.0
 10
342.9826702271487
 20
110.9922504870319
 30
0.0
 10
342.9826702271487
 20
110.9680356894348
 30
0.0
 10
342.9869164335649
 20
110.9434854544624
 30
0.0
 10
342.9948663756618
 20
110.9207102513231
 30
0.0
 10
343.0027999535702
 20
110.8979819287415
 30
0.0
 10
343.0145879826007
 20
110.8764113304125
 30
0.0
 10
343.0290126293857
 20
110.8574059935177
 30
0.0
 10
343.0442048087003
 20
110.8373893865016
 30
0.0
 10
343.0626514646449
 20
110.8197146621775
 30
0.0
 10
343.0828442803196
 20
110.805184629201
 30
0.0
 10
343.1056453978294
 20
110.7887777548624
 30
0.0
 10
343.1311903368191
 20
110.7759755066113
 30
0.0
 10
343.1576308234625
 20
110.767200162875
 30
0.0
 10
343.1906588513228
 20
110.7562384774372
 30
0.0
 10
343.2260290305038
 20
110.7512557027085
 30
0.0
 10
343.2606864131287
 20
110.7524183188712
 30
0.0
  0
SPLINE
  5
276
330
1F
100
AcDbEntity
  8
0
  6
Continuous
 62
     7
370
    15
100
AcDbSpline
210
0.0
220
0.0
230
1.0
 70
     8
 71
     3
 72
    21
 73
    17
 74
     0
 42
0.00000001
 43
0.00000001
 12
1.0
 22
0.0
 32
0.0
 13
1.0
 23
0.0
 33
0.0
 40
0.0
 40
0.0
 40
0.0
 40
0.0
 40
0.0628039173103698
 40
0.151638824831335
 40
0.2397415880026398
 40
0.3287536678637348
 40
0.4174588862128199
 40
0.5059948302901336
 40
0.572859881320297
 40
0.6388413878813599
 40
0.7057316169259119
 40
0.771997855321794
 40
0.8387380285818714
 40
0.9052560474219664
 40
0.9718452510959237
 40
1.0
 40
1.0
 40
1.0
 40
1.0
 10
343.4827070181851
 20
110.7472391338629
 30
0.0
 10
343.659617970799
 20
110.7467154898278
 30
0.0
 10
344.0867659912257
 20
110.7454511615898
 30
0.0
 10
344.7552210910643
 20
110.6439553034046
 30
0.0
 10
345.4793936884561
 20
110.4553890113762
 30
0.0
 10
346.1749609731348
 20
110.1754443530089
 30
0.0
 10
346.8314386243396
 20
109.8071033797683
 30
0.0
 10
347.3855870438059
 20
109.3906548148511
 30
0.0
 10
347.8412802441459
 20
108.9547036710123
 30
0.0
 10
348.2095641770663
 20
108.5174718896989
 30
0.0
 10
348.528953048516
 20
108.0419989176059
 30
0.0
 10
348.7948525762828
 20
107.5292298249594
 30
0.0
 10
349.0027463843557
 20
106.988304421959
 30
0.0
 10
349.142800967169
 20
106.4239415093723
 30
0.0
 10
349.2155491916085
 20
105.9575077949382
 30
0.0
 10
349.2158174153755
 20
105.6810711119169
 30
0.0
 10
349.2158971225504
 20
105.5989233316463
 30
0.0
  0
SPLINE
  5
277
330
1F
100
AcDbEntity
  8
0
  6
Continuous
 62
     7
370
    15
100
AcDbSpline
210
0.0
220
0.0
230
1.0
 70
     8
 71
     3
 72
    14
 73
    10
 74
     0
 42
0.00000001
 43
0.00000001
 12
1.0
 22
0.0
 32
0.0
 13
1.0
 23
0.0
 33
0.0
 40
0.0
 40
0.0
 40
0.0
 40
0.0
 40
0.0490199176042591
 40
0.2076670809969014
 40
0.3658199495068324
 40
0.5242981535297111
 40
0.6824434014658882
 40
0.8407082973639611
 40
1.0
 40
1.0
 40
1.0
 40
1.0
 10
343.2503532116894
 20
107.1657655300182
 30
0.0
 10
343.243956221418
 20
107.1661546788579
 30
0.0
 10
343.2168561290117
 20
107.1678032618743
 30
0.0
 10
343.1693573450024
 20
107.1575303065041
 30
0.0
 10
343.1111204324085
 20
107.1348202021149
 30
0.0
 10
343.0591092149184
 20
107.0984909139442
 30
0.0
 10
343.0175001649603
 20
107.050259770764
 30
0.0
 10
342.9884018602181
 20
106.9918476304271
 30
0.0
 10
342.9845851435725
 20
106.9487657103497
 30
0.0
 10
342.9826706146483
 20
106.9271550984663
 30
0.0
  0
LINE
  5
278
330
1F
100
AcDbEntity
  8
0
  6
Continuous
 62
     7
370
    15
100
AcDbLine
 10
342.9826706146
 20
102.2512210073
 30
0.0
 11
342.9826706146
 21
106.9271550985
 31
0.0
  0
SPLINE
  5
279
330
1F
100
AcDbEntity
  8
0
  6
Continuous
 62
     7
370
    15
100
AcDbSpline
210
0.0
220
0.0
230
1.0
 70
     8
 71
     3
 72
    17
 73
    13
 74
     0
 42
0.00000001
 43
0.00000001
 12
1.0
 22
0.0
 32
0.0
 13
1.0
 23
0.0
 33
0.0
 40
0.0
 40
0.0
 40
0.0
 40
0.0
 40
0.2446932873243689
 40
0.2446932873243689
 40
0.2446932873243689
 40
0.4884910005539669
 40
0.4884910005539669
 40
0.4884910005539669
 40
0.7450711890927024
 40
0.7450711890927024
 40
0.7450711890927024
 40
1.0
 40
1.0
 40
1.0
 40
1.0
 10
342.9826702271487
 20
102.2512207928289
 30
0.0
 10
342.9826702271487
 20
102.2270059952318
 30
0.0
 10
342.9869164335649
 20
102.2024557602594
 30
0.0
 10
342.9948663756618
 20
102.1796805571201
 30
0.0
 10
343.0027999535702
 20
102.1569522345384
 30
0.0
 10
343.0145879826007
 20
102.1353816362094
 30
0.0
 10
343.0290126293857
 20
102.1163762993147
 30
0.0
 10
343.0442048087003
 20
102.0963596922985
 30
0.0
 10
343.0626514646449
 20
102.0786849679745
 30
0.0
 10
343.0828442803196
 20
102.064154934998
 30
0.0
 10
343.1029401019484
 20
102.0496946954921
 30
0.0
 10
343.12514546912
 20
102.0380370301821
 30
0.0
 10
343.1481826978105
 20
102.0294897050254
 30
0.0
  0
SPLINE
  5
27A
330
1F
100
AcDbEntity
  8
0
  6
Continuous
 62
     7
370
    15
100
AcDbSpline
210
0.0
220
0.0
230
1.0
 70
     8
 71
     3
 72
    21
 73
    17
 74
     0
 42
0.00000001
 43
0.00000001
 12
1.0
 22
0.0
 32
0.0
 13
1.0
 23
0.0
 33
0.0
 40
0.0
 40
0.0
 40
0.0
 40
0.0
 40
0.0553225026441412
 40
0.1106610338174055
 40
0.1660196915423313
 40
0.2214025693737011
 40
0.2768137554984471
 40
0.3322573318414808
 40
0.3877373731784173
 40
0.4432579462561371
 40
0.4988231089221143
 40
0.5988925963844334
 40
0.6990215259878779
 40
0.7992334317904088
 40
0.8995517894529125
 40
1.0
 40
1.0
 40
1.0
 40
1.0
 10
343.1481826978108
 20
102.0294897050253
 30
0.0
 10
343.4652544545031
 20
101.9115899626312
 30
0.0
 10
344.0994898327464
 20
101.6757563188775
 30
0.0
 10
345.0473277288767
 20
101.3199093910792
 30
0.0
 10
345.9927312804178
 20
100.9624764128406
 30
0.0
 10
346.9354413638555
 20
100.6033091683378
 30
0.0
 10
347.8755274340548
 20
100.2424474119511
 30
0.0
 10
348.8129708471382
 20
99.87988045859112
 30
0.0
 10
349.7477765958495
 20
99.51561130721696
 30
0.0
 10
350.6799432850144
 20
99.14963869275482
 30
0.0
 10
351.8573594027259
 20
98.68391285616406
 30
0.0
 10
353.2761054258501
 20
98.11682280410265
 30
0.0
 10
354.9309967338189
 20
97.4464448494634
 30
0.0
 10
356.5750530427715
 20
96.77128396030677
 30
0.0
 10
358.2094554585881
 20
96.09167356136673
 30
0.0
 10
359.2888899729205
 20
95.63513577150037
 30
0.0
 10
359.8289563113274
 20
95.40671923557929
 30
0.0
  0
SPLINE
  5
27B
330
1F
100
AcDbEntity
  8
0
  6
Continuous
 62
     7
370
    15
100
AcDbSpline
210
0.0
220
0.0
230
1.0
 70
     8
 71
     3
 72
     9
 73
     5
 74
     0
 42
0.00000001
 43
0.00000001
 12
1.0
 22
0.0
 32
0.0
 13
1.0
 23
0.0
 33
0.0
 40
0.0
 40
0.0
 40
0.0
 40
0.0
 40
0.9152886776694941
 40
0.9999999999999999
 40
0.9999999999999999
 40
0.9999999999999999
 40
0.9999999999999999
 10
359.8289548849348
 20
95.40671906485976
 30
0.0
 10
359.8560263370952
 20
95.39602419317391
 30
0.0
 10
359.8856032922362
 20
95.3843394952783
 30
0.0
 10
359.9156524365731
 20
95.3893119176116
 30
0.0
 10
359.9181979393248
 20
95.38973313808263
 30
0.0
  0
SPLINE
  5
27C
330
1F
100
AcDbEntity
  8
0
  6
Continuous
 62
     7
370
    15
100
AcDbSpline
210
0.0
220
0.0
230
1.0
 70
     8
 71
     3
 72
    10
 73
     6
 74
     0
 42
0.00000001
 43
0.00000001
 12
1.0
 22
0.0
 32
0.0
 13
1.0
 23
0.0
 33
0.0
 40
0.0
 40
0.0
 40
0.0
 40
0.0
 40
0.1090396085939482
 40
0.7467765876995693
 40
1.0
 40
1.0
 40
1.0
 40
1.0
 10
359.9181197082285
 20
113.1245517642778
 30
0.0
 10
359.9133836530752
 20
113.1252065708016
 30
0.0
 10
359.8809479615672
 20
113.1296911263471
 30
0.0
 10
359.8368059898187
 20
113.1145631309882
 30
0.0
 10
359.8024992454106
 20
113.094706358802
 30
0.0
 10
359.7927487885241
 20
113.0890627862495
 30
0.0
  0
SPLINE
  5
27D
330
1F
100
AcDbEntity
  8
0
  6
Continuous
 62
     7
370
    15
100
AcDbSpline
210
0.0
220
0.0
230
1.0
 70
     8
 71
     3
 72
     9
 73
     5
 74
     0
 42
0.00000001
 43
0.00000001
 12
1.0
 22
0.0
 32
0.0
 13
1.0
 23
0.0
 33
0.0
 40
0.0
 40
0.0
 40
0.0
 40
0.0
 40
0.6057124962906704
 40
1.0
 40
1.0
 40
1.0
 40
1.0
 10
359.7927487885241
 20
113.0890627862495
 30
0.0
 10
358.7334855064165
 20
112.4011105713622
 30
0.0
 10
356.9846966196187
 20
111.2653370499303
 30
0.0
 10
355.192129439964
 20
110.1461933579774
 30
0.0
 10
354.4853426014666
 20
109.7049289853853
 30
0.0
  0
LINE
  5
27E
330
1F
100
AcDbEntity
  8
0
  6
Continuous
 62
     7
370
    15
100
AcDbLine
 10
342.9826706146
 20
68.0361097218
 30
0.0
 11
342.9826706146
 21
80.0450002314
 31
0.0
  0
SPLINE
  5
27F
330
1F
100
AcDbEntity
  8
0
  6
Continuous
 62
     7
370
    15
100
AcDbSpline
210
0.0
220
0.0
230
1.0
 70
     8
 71
     3
 72
    20
 73
    16
 74
     0
 42
0.00000001
 43
0.00000001
 12
1.0
 22
0.0
 32
0.0
 13
1.0
 23
0.0
 33
0.0
 40
0.0
 40
0.0
 40
0.0
 40
0.0
 40
0.1794752703477611
 40
0.1794752703477611
 40
0.1794752703477611
 40
0.3582936636535291
 40
0.3582936636535291
 40
0.3582936636535291
 40
0.54648762355902
 40
0.54648762355902
 40
0.54648762355902
 40
0.7591752932445043
 40
0.7591752932445043
 40
0.7591752932445043
 40
1.0
 40
1.0
 40
1.0
 40
1.0
 10
342.9826702271487
 20
68.0361106193346
 30
0.0
 10
342.9826702271487
 20
68.01189582173745
 30
0.0
 10
342.9869164335649
 20
67.98734558676504
 30
0.0
 10
342.9948663756618
 20
67.96457038362576
 30
0.0
 10
343.0027999535702
 20
67.94184206104411
 30
0.0
 10
343.0145879826007
 20
67.92027146271512
 30
0.0
 10
343.0290126293857
 20
67.90126612582037
 30
0.0
 10
343.0442048087004
 20
67.88124951880422
 30
0.0
 10
343.0626514646449
 20
67.86357479448016
 30
0.0
 10
343.0828442803196
 20
67.84904476150369
 30
0.0
 10
343.1056453978294
 20
67.83263788716509
 30
0.0
 10
343.1311903368191
 20
67.81983563891397
 30
0.0
 10
343.1576308234625
 20
67.81106029517768
 30
0.0
 10
343.1875218826613
 20
67.80113973952946
 30
0.0
 10
343.2192935193226
 20
67.79611061933458
 30
0.0
 10
343.2506764366572
 20
67.79611061933458
 30
0.0
  0
SPLINE
  5
280
330
1F
100
AcDbEntity
  8
0
  6
Continuous
 62
     7
370
    15
100
AcDbSpline
210
0.0
220
0.0
230
1.0
 70
     8
 71
     3
 72
    11
 73
     7
 74
     0
 42
0.00000001
 43
0.00000001
 12
1.0
 22
0.0
 32
0.0
 13
1.0
 23
0.0
 33
0.0
 40
0.0
 40
0.0
 40
0.0
 40
0.0
 40
0.1437694541032885
 40
0.4286783324118962
 40
0.7140240829954889
 40
1.0
 40
1.0
 40
1.0
 40
1.0
 10
350.0044404958967
 20
70.52230886235655
 30
0.0
 10
350.4856858342792
 20
70.33429815517187
 30
0.0
 10
351.9206182434302
 20
69.77370538576754
 30
0.0
 10
354.2756180804866
 20
68.82554546715942
 30
0.0
 10
357.0743070575883
 20
67.67970200286145
 30
0.0
 10
358.9100639973275
 20
66.905228114904
 30
0.0
 10
359.8289548849348
 20
66.51756404951037
 30
0.0
  0
SPLINE
  5
281
330
1F
100
AcDbEntity
  8
0
  6
Continuous
 62
     7
370
    15
100
AcDbSpline
210
0.0
220
0.0
230
1.0
 70
     8
 71
     3
 72
     9
 73
     5
 74
     0
 42
0.00000001
 43
0.00000001
 12
1.0
 22
0.0
 32
0.0
 13
1.0
 23
0.0
 33
0.0
 40
0.0
 40
0.0
 40
0.0
 40
0.0
 40
0.915289098925778
 40
1.0
 40
1.0
 40
1.0
 40
1.0
 10
359.8289548849348
 20
66.51756404951037
 30
0.0
 10
359.8560262686789
 20
66.5068703854817
 30
0.0
 10
359.8856031354588
 20
66.49518701239091
 30
0.0
 10
359.9156524359994
 20
66.50015753126213
 30
0.0
 10
359.9181979393248
 20
66.50057858839453
 30
0.0
  0
SPLINE
  5
282
330
1F
100
AcDbEntity
  8
0
  6
Continuous
 62
     7
370
    15
100
AcDbSpline
210
0.0
220
0.0
230
1.0
 70
     8
 71
     3
 72
     9
 73
     5
 74
     0
 42
0.00000001
 43
0.00000001
 12
1.0
 22
0.0
 32
0.0
 13
1.0
 23
0.0
 33
0.0
 40
0.0
 40
0.0
 40
0.0
 40
0.0
 40
0.157194868653961
 40
0.9999999999999999
 40
0.9999999999999999
 40
0.9999999999999999
 40
0.9999999999999999
 10
359.9181197082285
 20
86.90567459031762
 30
0.0
 10
359.9133735812113
 20
86.9063465340739
 30
0.0
 10
359.8831809479666
 20
86.91062112498165
 30
0.0
 10
359.8537551220291
 20
86.8991609055515
 30
0.0
 10
359.8289548849348
 20
86.88950217380942
 30
0.0
  0
SPLINE
  5
283
330
1F
100
AcDbEntity
  8
0
  6
Continuous
 62
     7
370
    15
100
AcDbSpline
210
0.0
220
0.0
230
1.0
 70
     8
 71
     3
 72
    21
 73
    17
 74
     0
 42
0.00000001
 43
0.00000001
 12
1.0
 22
0.0
 32
0.0
 13
1.0
 23
0.0
 33
0.0
 40
0.0
 40
0.0
 40
0.0
 40
0.0
 40
0.0558166076658251
 40
0.1115913724534508
 40
0.1673282969840685
 40
0.2230313920360584
 40
0.2787046756991631
 40
0.3343521725208211
 40
0.389977912645541
 40
0.4455859309482249
 40
0.5011802661623703
 40
0.6011553810866467
 40
0.7010011410109773
 40
0.8007412808040228
 40
0.9003996107987103
 40
1.0
 40
1.0
 40
1.0
 40
1.0
 10
359.8289563113274
 20
86.88950200308989
 30
0.0
 10
359.5291661870693
 20
86.76249048107623
 30
0.0
 10
358.9298106759957
 20
86.50856265114146
 30
0.0
 10
358.0260507522275
 20
86.12926612964759
 30
0.0
 10
357.1192894194019
 20
85.75133290178127
 30
0.0
 10
356.2091608816215
 20
85.3748657127548
 30
0.0
 10
355.2957630962496
 20
84.99983706666399
 30
0.0
 10
354.3790697689428
 20
84.62625433390966
 30
0.0
 10
353.4590882775342
 20
84.25411554358864
 30
0.0
 10
352.5358154664874
 20
83.88342125134244
 30
0.0
 10
351.3626527700939
 20
83.41589524377142
 30
0.0
 10
349.9363087735846
 20
82.85339014045688
 30
0.0
 10
348.2526932587775
 20
82.19827103177573
 30
0.0
 10
346.5602669531316
 20
81.54874153666647
 30
0.0
 10
344.8598728719471
 20
80.90432186977046
 30
0.0
 10
343.7186354721978
 20
80.4792204417771
 30
0.0
 10
343.148182697811
 20
80.26673153364295
 30
0.0
  0
SPLINE
  5
284
330
1F
100
AcDbEntity
  8
0
  6
Continuous
 62
     7
370
    15
100
AcDbSpline
210
0.0
220
0.0
230
1.0
 70
     8
 71
     3
 72
    17
 73
    13
 74
     0
 42
0.00000001
 43
0.00000001
 12
1.0
 22
0.0
 32
0.0
 13
1.0
 23
0.0
 33
0.0
 40
0.0
 40
0.0
 40
0.0
 40
0.0
 40
0.3153725247568784
 40
0.3153725247568784
 40
0.3153725247568784
 40
0.6332746188973369
 40
0.6332746188973369
 40
0.6332746188973369
 40
0.9132927023718137
 40
0.9132927023718137
 40
0.9132927023718137
 40
1.0
 40
1.0
 40
1.0
 40
1.0
 10
343.148182697811
 20
80.26673153364295
 30
0.0
 10
343.1197667648098
 20
80.25618858933935
 30
0.0
 10
343.0925343859622
 20
80.2408389529649
 30
0.0
 10
343.0689423656492
 20
80.22134216262192
 30
0.0
 10
343.0452419899661
 20
80.20175582581764
 30
0.0
 10
343.0245187507807
 20
80.17726991398101
 30
0.0
 10
343.0096565952834
 20
80.14990890322295
 30
0.0
 10
342.9965465754673
 20
80.12577354861102
 30
0.0
 10
342.9876244730449
 20
80.09858288043978
 30
0.0
 10
342.9842634016821
 20
80.07111656041916
 30
0.0
 10
342.9832044524683
 20
80.06246293934049
 30
0.0
 10
342.9826702271487
 20
80.05372313657273
 30
0.0
 10
342.9826702271487
 20
80.04500044584024
 30
0.0
  0
LINE
  5
285
330
1F
100
AcDbEntity
  8
0
  6
Continuous
 62
     7
370
    15
100
AcDbLine
 10
337.1794301515
 20
97.8604737209
 30
0.0
 11
337.1794301515
 21
115.5561102094
 31
0.0
  0
LINE
  5
286
330
1F
100
AcDbEntity
  8
0
  6
Continuous
 62
     7
370
    15
100
AcDbLine
 10
361.9200273847
 20
89.1044713096
 30
0.0
 11
361.9200273847
 21
93.191749929
 31
0.0
  0
SPLINE
  5
287
330
1F
100
AcDbEntity
  8
0
  6
Continuous
 62
     7
370
    15
100
AcDbSpline
210
0.0
220
0.0
230
1.0
 70
     8
 71
     3
 72
    20
 73
    16
 74
     0
 42
0.00000001
 43
0.00000001
 12
1.0
 22
0.0
 32
0.0
 13
1.0
 23
0.0
 33
0.0
 40
0.0
 40
0.0
 40
0.0
 40
0.0
 40
0.1248373376559589
 40
0.2498800959418083
 40
0.3744221221105423
 40
0.4994634234190955
 40
0.524461827294068
 40
0.5618890660515407
 40
0.6240953061537936
 40
0.6954794827750611
 40
0.7491507758843529
 40
0.8308127307856262
 40
0.8919492388703335
 40
0.9536999243024845
 40
1.0
 40
1.0
 40
1.0
 40
1.0
 10
361.7757921147143
 20
88.88274032030505
 30
0.0
 10
361.785875189383
 20
88.88754631860782
 30
0.0
 10
361.8060579304839
 20
88.89716622351402
 30
0.0
 10
361.8336771587029
 20
88.91714435674892
 30
0.0
 10
361.8585661234418
 20
88.94096110990064
 30
0.0
 10
361.874269022137
 20
88.9612354135002
 30
0.0
 10
361.8837941526657
 20
88.97599487579421
 30
0.0
 10
361.8897867711837
 20
88.98606628408805
 30
0.0
 10
361.8972179640602
 20
89.00042862706516
 30
0.0
 10
361.9041200164473
 20
89.01685984929269
 30
0.0
 10
361.9104350006035
 20
89.03557335741584
 30
0.0
 10
361.9150723104132
 20
89.05387464019819
 30
0.0
 10
361.9182568119449
 20
89.07331440959963
 30
0.0
 10
361.9197881672758
 20
89.08957690077368
 30
0.0
 10
361.9199564157516
 20
89.10000355531719
 30
0.0
 10
361.9200285107288
 20
89.10447140810776
 30
0.0
  0
SPLINE
  5
288
330
1F
100
AcDbEntity
  8
0
  6
Continuous
 62
     7
370
    15
100
AcDbSpline
210
0.0
220
0.0
230
1.0
 70
     8
 71
     3
 72
    19
 73
    15
 74
     0
 42
0.00000001
 43
0.00000001
 12
1.0
 22
0.0
 32
0.0
 13
1.0
 23
0.0
 33
0.0
 40
0.0
 40
0.0
 40
0.0
 40
0.0
 40
0.0491815436402725
 40
0.0986559519692572
 40
0.148423365148894
 40
0.1984839208794736
 40
0.2488377544558238
 40
0.372732295320554
 40
0.4986533583030067
 40
0.622775462610292
 40
0.7491446556801543
 40
0.8316455025315478
 40
0.915263833314538
 40
1.0
 40
1.0
 40
1.0
 40
1.0
 10
342.9227433665444
 20
81.45022137202399
 30
0.0
 10
343.2422540314241
 20
81.56715148189005
 30
0.0
 10
343.8831779731082
 20
81.80170799331397
 30
0.0
 10
344.8438739796688
 20
82.15672725008847
 30
0.0
 10
345.8075444425685
 20
82.51539622962852
 30
0.0
 10
346.7738223181409
 20
82.87787184101882
 30
0.0
 10
348.2124176684813
 20
83.42169299368538
 30
0.0
 10
350.1265780494386
 20
84.15504390989149
 30
0.0
 10
352.4904542429683
 20
85.0780920496349
 30
0.0
 10
354.8480496890111
 20
86.01635209371855
 30
0.0
 10
356.9135105114912
 20
86.85398600320268
 30
0.0
 10
358.7119251621342
 20
87.59508067266435
 30
0.0
 10
360.2443109081568
 20
88.23392502505963
 30
0.0
 10
361.2630436606047
 20
88.66551333886034
 30
0.0
 10
361.7757921147143
 20
88.88274032030505
 30
0.0
  0
SPLINE
  5
289
330
1F
100
AcDbEntity
  8
0
  6
Continuous
 62
     7
370
    15
100
AcDbSpline
210
0.0
220
0.0
230
1.0
 70
     8
 71
     3
 72
    22
 73
    18
 74
     0
 42
0.00000001
 43
0.00000001
 12
1.0
 22
0.0
 32
0.0
 13
1.0
 23
0.0
 33
0.0
 40
0.0
 40
0.0
 40
0.0
 40
0.0
 40
0.0155544025872354
 40
0.0311337902340249
 40
0.0623528427317575
 40
0.1249257335903065
 40
0.1964072815570719
 40
0.2498091392132394
 40
0.3211847086678559
 40
0.3748722164966981
 40
0.4106671531290993
 40
0.4374833950078376
 40
0.4998628867272654
 40
0.6248977178594762
 40
0.7498540852317392
 40
0.8749340967425435
 40
1.0
 40
1.0
 40
1.0
 40
1.0
 10
342.7545694556101
 20
81.2284902842213
 30
0.0
 10
342.7545797678644
 20
81.23004498090191
 30
0.0
 10
342.7546004089376
 20
81.23315687157465
 30
0.0
 10
342.7548199299144
 20
81.23938571263497
 30
0.0
 10
342.7555541890721
 20
81.25029443392727
 30
0.0
 10
342.7577585922834
 20
81.26668013876709
 30
0.0
 10
342.7619500967063
 20
81.28494709118561
 30
0.0
 10
342.7679642828991
 20
81.30357805589655
 30
0.0
 10
342.7748796590949
 20
81.31996746343025
 30
0.0
 10
342.7822763177597
 20
81.33414104777499
 30
0.0
 10
342.7881894760794
 20
81.34404780967081
 30
0.0
 10
342.794951658254
 20
81.35442298713265
 30
0.0
 10
342.8075225900441
 20
81.37150521849192
 30
0.0
 10
342.8285974910623
 20
81.39413555662891
 30
0.0
 10
342.8573791820474
 20
81.41724367267541
 30
0.0
 10
342.8888354682544
 20
81.43642690307574
 30
0.0
 10
342.9114411587684
 20
81.44562338860277
 30
0.0
 10
342.9227433665438
 20
81.45022137202496
 30
0.0
  0
LINE
  5
28A
330
1F
100
AcDbEntity
  8
0
  6
Continuous
 62
     7
370
    15
100
AcDbLine
 10
342.754569227
 20
68.0361097218
 30
0.0
 11
342.754569227
 21
81.2284905003
 31
0.0
  0
SPLINE
  5
28B
330
1F
100
AcDbEntity
  8
0
  6
Continuous
 62
     7
370
    15
100
AcDbSpline
210
0.0
220
0.0
230
1.0
 70
     8
 71
     3
 72
    25
 73
    21
 74
     0
 42
0.00000001
 43
0.00000001
 12
1.0
 22
0.0
 32
0.0
 13
1.0
 23
0.0
 33
0.0
 40
0.0
 40
0.0
 40
0.0
 40
0.0
 40
0.1245374729631989
 40
0.2493505094961812
 40
0.3737188330692622
 40
0.4987299974679059
 40
0.6234526366069973
 40
0.7488262935130096
 40
0.7800478408818909
 40
0.7956962209491162
 40
0.811372428408897
 40
0.83649138848678
 40
0.8515751341013965
 40
0.8741986371235376
 40
0.8993106120218872
 40
0.9143552820179299
 40
0.9368743237001197
 40
0.951137290445953
 40
0.9728275590676057
 40
1.0
 40
1.0
 40
1.0
 40
1.0
 10
342.4816607218715
 20
67.79611061933457
 30
0.0
 10
342.4981883995015
 20
67.79688803601667
 30
0.0
 10
342.531280325488
 20
67.79844458956761
 30
0.0
 10
342.5796893507278
 20
67.81072848185404
 30
0.0
 10
342.6256232705341
 20
67.83050708742286
 30
0.0
 10
342.6675559996169
 20
67.85830842429155
 30
0.0
 10
342.7037616115317
 20
67.89383684554805
 30
0.0
 10
342.7250293631419
 20
67.92579441530877
 30
0.0
 10
342.7351060190889
 20
67.94689001532089
 30
0.0
 10
342.7384270165493
 20
67.9547101634157
 30
0.0
 10
342.7412212261305
 20
67.96185447145737
 30
0.0
 10
342.7437232440897
 20
67.96903341682616
 30
0.0
 10
342.7462375251674
 20
67.97720581618299
 30
0.0
 10
342.7484679784158
 20
67.98546595773456
 30
0.0
 10
342.7503299551204
 20
67.99381783947177
 30
0.0
 10
342.7518702358062
 20
68.00222153269645
 30
0.0
 10
342.7528950346318
 20
68.00921634147254
 30
0.0
 10
342.7537584204865
 20
68.01714474589119
 30
0.0
 10
342.7544138601084
 20
68.02573549632073
 30
0.0
 10
342.7545138509384
 20
68.03240289448027
 30
0.0
 10
342.7545694556101
 20
68.0361106193346
 30
0.0
  0
LINE
  5
28C
330
1F
100
AcDbEntity
  8
0
  6
Continuous
 62
     7
370
    15
100
AcDbLine
 10
337.4642136937
 20
67.796109757
 30
0.0
 11
342.4816600477
 21
67.796109757
 31
0.0
  0
SPLINE
  5
28D
330
1F
100
AcDbEntity
  8
0
  6
Continuous
 62
     7
370
    15
100
AcDbSpline
210
0.0
220
0.0
230
1.0
 70
     8
 71
     3
 72
    26
 73
    22
 74
     0
 42
0.00000001
 43
0.00000001
 12
1.0
 22
0.0
 32
0.0
 13
1.0
 23
0.0
 33
0.0
 40
0.0
 40
0.0
 40
0.0
 40
0.0
 40
0.0089011391085978
 40
0.0133563221085909
 40
0.0178143623845564
 40
0.035671153081848
 40
0.0499814625117758
 40
0.0714738731966685
 40
0.0878611605262943
 40
0.1124371059947263
 40
0.1247155684988147
 40
0.1431079547909557
 40
0.1698492204778955
 40
0.196625833737024
 40
0.2503436521281099
 40
0.3753513944770636
 40
0.5005904984399556
 40
0.6255888912022464
 40
0.7505281328699007
 40
0.875307810454623
 40
1.0
 40
1.0
 40
1.0
 40
1.0
 10
337.1794297061903
 20
68.0361106193346
 30
0.0
 10
337.1794361978709
 20
68.03487425677105
 30
0.0
 10
337.1794459387565
 20
68.03301907212106
 30
0.0
 10
337.1795062547196
 20
68.03054539666465
 30
0.0
 10
337.1796286126949
 20
68.02682921129067
 30
0.0
 10
337.1799161483689
 20
68.02174903744627
 30
0.0
 10
337.1805825003521
 20
68.01432598319394
 30
0.0
 10
337.1814930854217
 20
68.00713373649943
 30
0.0
 10
337.1829080928511
 20
67.99857801363983
 30
0.0
 10
337.1844109705527
 20
67.99133922752259
 30
0.0
 10
337.1862429422732
 20
67.98389510057021
 30
0.0
 10
337.1883813943451
 20
67.97622173571344
 30
0.0
 10
337.1914911971058
 20
67.96674301839428
 30
0.0
 10
337.1968826342713
 20
67.95288907425608
 30
0.0
 10
337.2092355040572
 20
67.92721569388128
 30
0.0
 10
337.2336022463115
 20
67.89257421693056
 30
0.0
 10
337.2716985966975
 20
67.85727070692013
 30
0.0
 10
337.3155266071264
 20
67.82980239903233
 30
0.0
 10
337.3631540297252
 20
67.810402297961
 30
0.0
 10
337.4131415759317
 20
67.79837009937935
 30
0.0
 10
337.4471937876818
 20
67.79686360324361
 30
0.0
 10
337.4642139226207
 20
67.79611061933457
 30
0.0
  0
LINE
  5
28E
330
1F
100
AcDbEntity
  8
0
  6
Continuous
 62
     7
370
    15
100
AcDbLine
 10
337.1794301515
 20
68.0361097218
 30
0.0
 11
337.1794301515
 21
84.4357475178
 31
0.0
  0
SPLINE
  5
28F
330
1F
100
AcDbEntity
  8
0
  6
Continuous
 62
     7
370
    15
100
AcDbSpline
210
0.0
220
0.0
230
1.0
 70
     8
 71
     3
 72
    21
 73
    17
 74
     0
 42
0.00000001
 43
0.00000001
 12
1.0
 22
0.0
 32
0.0
 13
1.0
 23
0.0
 33
0.0
 40
0.0
 40
0.0
 40
0.0
 40
0.0
 40
0.1247734956603249
 40
0.2497880955810181
 40
0.4159743193028027
 40
0.49950407364875
 40
0.6241785521644584
 40
0.6553344624710414
 40
0.6865743486428537
 40
0.7491493665235737
 40
0.7818360061084966
 40
0.8307509634475717
 40
0.855137927401417
 40
0.8918396155632327
 40
0.9536578857250176
 40
1.0
 40
1.0
 40
1.0
 40
1.0
 10
337.3553091981727
 20
84.65747883403665
 30
0.0
 10
337.3436933358326
 20
84.65296515772332
 30
0.0
 10
337.3204391654087
 20
84.64392908315949
 30
0.0
 10
337.2843185743555
 20
84.62303283759168
 30
0.0
 10
337.254726669967
 20
84.59954662694776
 30
0.0
 10
337.2290042556395
 20
84.57202987847255
 30
0.0
 10
337.2148026292874
 20
84.55239278347281
 30
0.0
 10
337.205439273203
 20
84.53600199271678
 30
0.0
 10
337.199646237461
 20
84.52479092531168
 30
0.0
 10
337.1945037038729
 20
84.51306804639384
 30
0.0
 10
337.1895365047853
 20
84.49935657852252
 30
0.0
 10
337.1864683535048
 20
84.48906883792965
 30
0.0
 10
337.183860998725
 20
84.47823925586881
 30
0.0
 10
337.1815263830369
 20
84.4660089524037
 30
0.0
 10
337.1797542105307
 20
84.45140713388815
 30
0.0
 10
337.1795270393554
 20
84.44044468730739
 30
0.0
 10
337.1794297061903
 20
84.43574774623397
 30
0.0
  0
SPLINE
  5
290
330
1F
100
AcDbEntity
  8
0
  6
Continuous
 62
     7
370
    15
100
AcDbSpline
210
0.0
220
0.0
230
1.0
 70
     8
 71
     3
 72
    19
 73
    15
 74
     0
 42
0.00000001
 43
0.00000001
 12
1.0
 22
0.0
 32
0.0
 13
1.0
 23
0.0
 33
0.0
 40
0.0
 40
0.0
 40
0.0
 40
0.0
 40
0.0507613404445365
 40
0.1012275480400544
 40
0.1513987028643874
 40
0.2012748864169571
 40
0.2508561816522144
 40
0.3769183475867992
 40
0.5012941032695816
 40
0.6269664684835526
 40
0.7510837532745002
 40
0.8346938656817968
 40
0.917665751408635
 40
1.0
 40
1.0
 40
1.0
 40
1.0
 10
354.1281207487778
 20
90.92637953153188
 30
0.0
 10
353.852256079925
 20
90.81639929828907
 30
0.0
 10
353.3021306542702
 20
90.59707827077985
 30
0.0
 10
352.4758710570872
 20
90.27044095761714
 30
0.0
 10
351.6519848807461
 20
89.94673949008221
 30
0.0
 10
350.8303077629574
 20
89.62607114203489
 30
0.0
 10
349.5881005564309
 20
89.14444837415664
 30
0.0
 10
347.9267025354397
 20
88.50776453384549
 30
0.0
 10
345.8289598906968
 20
87.71715579692717
 30
0.0
 10
343.7278341183658
 20
86.9384638592369
 30
0.0
 10
341.8436507464471
 20
86.25180981818447
 30
0.0
 10
340.192448223963
 20
85.65865224040829
 30
0.0
 10
338.7734805959666
 20
85.15430314674896
 30
0.0
 10
337.8268158039987
 20
84.82266052204928
 30
0.0
 10
337.3553091981727
 20
84.65747883403668
 30
0.0
  0
SPLINE
  5
291
330
1F
100
AcDbEntity
  8
0
  6
Continuous
 62
     7
370
    15
100
AcDbSpline
210
0.0
220
0.0
230
1.0
 70
     8
 71
     3
 72
    61
 73
    57
 74
     0
 42
0.00000001
 43
0.00000001
 12
1.0
 22
0.0
 32
0.0
 13
1.0
 23
0.0
 33
0.0
 40
0.0
 40
0.0
 40
0.0
 40
0.0
 40
0.0624119301157333
 40
0.1249298136653892
 40
0.1871695742000779
 40
0.2496617331421682
 40
0.3119073618659416
 40
0.3743376193751925
 40
0.4056270141992889
 40
0.4134387768994741
 40
0.4212425214557849
 40
0.4274788597119711
 40
0.4321517905918985
 40
0.4368206969602972
 40
0.4445924801761741
 40
0.4523753771902021
 40
0.4586126615833225
 40
0.4632954009041609
 40
0.467981838912588
 40
0.4757997570115959
 40
0.4797117536083489
 40
0.4836254618300545
 40
0.4898903832060625
 40
0.4945910923578196
 40
0.4992930962009772
 40
0.5032121580907604
 40
0.5071316389467388
 40
0.5110513191950391
 40
0.5149709788254204
 40
0.5188903976690982
 40
0.5228093556762995
 40
0.5267276331941114
 40
0.5306450112447657
 40
0.5345612718042033
 40
0.5384761980819198
 40
0.5423895748017754
 40
0.5463011884837866
 40
0.5502108277279846
 40
0.5541182834996813
 40
0.5580233494167476
 40
0.5619258220393815
 40
0.5658255011620013
 40
0.569722190107894
 40
0.5736156960267419
 40
0.5775103977352215
 40
0.5814098988778035
 40
0.5853121180234929
 40
0.5892169044274135
 40
0.5931241016495662
 40
0.6244393729197539
 40
0.6959540201763196
 40
0.7495356334121456
 40
0.8210880096891969
 40
0.8746331632761581
 40
0.9372784209833297
 40
0.9999999999999999
 40
0.9999999999999999
 40
0.9999999999999999
 40
0.9999999999999999
 10
354.1281207487778
 20
91.3698417071373
 30
0.0
 10
354.1386963774236
 20
91.36511569015865
 30
0.0
 10
354.1598655884007
 20
91.35565563309223
 30
0.0
 10
354.1890036006016
 20
91.33598939859138
 30
0.0
 10
354.2154236553584
 20
91.31245240260556
 30
0.0
 10
354.2382725827916
 20
91.28502776719698
 30
0.0
 10
354.2570769108379
 20
91.25427336139587
 30
0.0
 10
354.2686494463313
 20
91.22625752286203
 30
0.0
 10
354.2740688568535
 20
91.20726707563973
 30
0.0
 10
354.2761444455775
 20
91.19837674476449
 30
0.0
 10
354.2770308083348
 20
91.19421449863725
 30
0.0
 10
354.2777268473778
 20
91.19063569072064
 30
0.0
 10
354.2782650431963
 20
91.18764771547681
 30
0.0
 10
354.2788171212593
 20
91.18435752083096
 30
0.0
 10
354.2794073436332
 20
91.1804579394954
 30
0.0
 10
354.2799580573237
 20
91.17624232376687
 30
0.0
 10
354.2803651378507
 20
91.17261536312068
 30
0.0
 10
354.2806624564304
 20
91.16958389804233
 30
0.0
 10
354.280950003879
 20
91.16624125763181
 30
0.0
 10
354.2811740020439
 20
91.16304382879078
 30
0.0
 10
354.2813423981904
 20
91.15999392705848
 30
0.0
 10
354.2814670658433
 20
91.15724525331616
 30
0.0
 10
354.2815616907381
 20
91.15434098830066
 30
0.0
 10
354.2816194504914
 20
91.15128172230783
 30
0.0
 10
354.2816380846456
 20
91.1486800496155
 30
0.0
 10
354.2816293593927
 20
91.1462309180189
 30
0.0
 10
354.2815988078606
 20
91.14393478347795
 30
0.0
 10
354.281545898268
 20
91.1416389934904
 30
0.0
 10
354.2814706440071
 20
91.13934392258187
 30
0.0
 10
354.2813730584633
 20
91.13704994629147
 30
0.0
 10
354.2812531550138
 20
91.13475743988685
 30
0.0
 10
354.2811109470276
 20
91.13246677870848
 30
0.0
 10
354.2809464478657
 20
91.13017833807733
 30
0.0
 10
354.280759670881
 20
91.12789249331969
 30
0.0
 10
354.2805506294185
 20
91.12560961976045
 30
0.0
 10
354.280319336815
 20
91.12333009272486
 30
0.0
 10
354.2800658063985
 20
91.12105428753829
 30
0.0
 10
354.2797900514925
 20
91.1187825795252
 30
0.0
 10
354.2794920853969
 20
91.11651534401375
 30
0.0
 10
354.2791719214618
 20
91.11425295631823
 30
0.0
 10
354.2788295728105
 20
91.11199579180489
 30
0.0
 10
354.278465053372
 20
91.1097442256464
 30
0.0
 10
354.2780783740328
 20
91.10749863373731
 30
0.0
 10
354.2776693971127
 20
91.10525851363546
 30
0.0
 10
354.2772377632268
 20
91.1030226567374
 30
0.0
 10
354.2767834697088
 20
91.1007901537659
 30
0.0
 10
354.2763065902516
 20
91.09856097679186
 30
0.0
 10
354.2758073556801
 20
91.09633580903248
 30
0.0
 10
354.2740667613332
 20
91.088922426778
 30
0.0
 10
354.2684266412701
 20
91.06894139566921
 30
0.0
 10
354.2565481359864
 20
91.04091361457932
 30
0.0
 10
354.2365827624272
 20
91.00881676389069
 30
0.0
 10
354.2144945053305
 20
90.98276702095562
 30
0.0
 10
354.1878191660982
 20
90.95947291695128
 30
0.0
 10
354.1599998872285
 20
90.94060607837764
 30
0.0
 10
354.1387514401654
 20
90.93112363806607
 30
0.0
 10
354.1281207487778
 20
90.92637953153188
 30
0.0
  0
SPLINE
  5
292
330
1F
100
AcDbEntity
  8
0
  6
Continuous
 62
     7
370
    15
100
AcDbSpline
210
0.0
220
0.0
230
1.0
 70
     8
 71
     3
 72
    19
 73
    15
 74
     0
 42
0.00000001
 43
0.00000001
 12
1.0
 22
0.0
 32
0.0
 13
1.0
 23
0.0
 33
0.0
 40
0.0
 40
0.0
 40
0.0
 40
0.0
 40
0.0493226044107889
 40
0.0988755111471381
 40
0.1486588493384765
 40
0.1986727463292084
 40
0.2489173277105038
 40
0.3730292495534284
 40
0.4987069714870591
 40
0.6230773508334341
 40
0.749144886859338
 40
0.8319413918402319
 40
0.9155596371505079
 40
1.0
 40
1.0
 40
1.0
 40
1.0
 10
337.3553091981727
 20
97.6387424046325
 30
0.0
 10
337.6378792912246
 20
97.53988154784372
 30
0.0
 10
338.2043388835183
 20
97.34169822268875
 30
0.0
 10
339.0537120029608
 20
97.04194244590792
 30
0.0
 10
339.9052772077367
 20
96.73949649852834
 30
0.0
 10
340.7588020719625
 20
96.43422985070993
 30
0.0
 10
342.0321591917219
 20
95.97568953088614
 30
0.0
 10
343.7278118899816
 20
95.35777352611059
 30
0.0
 10
345.828900158102
 20
94.57908773417023
 30
0.0
 10
347.9266634917839
 20
93.7884637098273
 30
0.0
 10
349.7720365023451
 20
93.08131222319756
 30
0.0
 10
351.3813527881777
 20
92.45588667933765
 30
0.0
 10
352.7550101807162
 20
91.9165673688104
 30
0.0
 10
353.6689269780621
 20
91.55267696015349
 30
0.0
 10
354.1281207487779
 20
91.3698417071373
 30
0.0
  0
SPLINE
  5
293
330
1F
100
AcDbEntity
  8
0
  6
Continuous
 62
     7
370
    15
100
AcDbSpline
210
0.0
220
0.0
230
1.0
 70
     8
 71
     3
 72
    22
 73
    18
 74
     0
 42
0.00000001
 43
0.00000001
 12
1.0
 22
0.0
 32
0.0
 13
1.0
 23
0.0
 33
0.0
 40
0.0
 40
0.0
 40
0.0
 40
0.0
 40
0.0155580903450377
 40
0.0311421988715246
 40
0.0623727545339226
 40
0.1249681053090144
 40
0.1536000952312429
 40
0.196474246233356
 40
0.2498828298623399
 40
0.3123928798218127
 40
0.3482011017913815
 40
0.3750673204538477
 40
0.499953823243862
 40
0.6251145543189259
 40
0.7500092095371526
 40
0.8750512691286532
 40
1.0
 40
1.0
 40
1.0
 40
1.0
 10
337.1794297061903
 20
97.86047349243523
 30
0.0
 10
337.179440819009
 20
97.85889669593557
 30
0.0
 10
337.1794630632305
 20
97.85574046602024
 30
0.0
 10
337.1796994815664
 20
97.84942286680919
 30
0.0
 10
337.1804896114958
 20
97.83836064944188
 30
0.0
 10
337.1822446481567
 20
97.82605681558381
 30
0.0
 10
337.1850450402483
 20
97.81276595629518
 30
0.0
 10
337.1882902485445
 20
97.80053545249788
 30
0.0
 10
337.1935030918395
 20
97.7853249374497
 30
0.0
 10
337.1996806329747
 20
97.77126864140787
 30
0.0
 10
337.205527235715
 20
97.76005920392049
 30
0.0
 10
337.2149686471952
 20
97.74365727282333
 30
0.0
 10
337.231321581339
 20
97.72089173616422
 30
0.0
 10
337.2578439650845
 20
97.69395688298424
 30
0.0
 10
337.2878388285955
 20
97.67115409554363
 30
0.0
 10
337.3204011500791
 20
97.65229874647346
 30
0.0
 10
337.3436760785406
 20
97.64326006044607
 30
0.0
 10
337.3553091981727
 20
97.63874240463252
 30
0.0
  0
SPLINE
  5
294
330
1F
100
AcDbEntity
  8
0
  6
Continuous
 62
     7
370
    15
100
AcDbSpline
210
0.0
220
0.0
230
1.0
 70
     8
 71
     3
 72
    26
 73
    22
 74
     0
 42
0.00000001
 43
0.00000001
 12
1.0
 22
0.0
 32
0.0
 13
1.0
 23
0.0
 33
0.0
 40
0.0
 40
0.0
 40
0.0
 40
0.0
 40
0.1246655110475157
 40
0.2495453154142194
 40
0.3739281685715898
 40
0.4988463173387747
 40
0.6234595715723035
 40
0.7488510656583098
 40
0.8113534593158664
 40
0.8270483403606155
 40
0.8427559698771335
 40
0.8553257986374934
 40
0.8741761522571163
 40
0.8885284017347611
 40
0.9100261005589979
 40
0.9207576456386684
 40
0.936826777302581
 40
0.9510786724731061
 40
0.9728172162526336
 40
0.9836924239013031
 40
1.0
 40
1.0
 40
1.0
 40
1.0
 10
337.4642139226207
 20
115.7961106193346
 30
0.0
 10
337.4471983186556
 20
115.7953548853208
 30
0.0
 10
337.4131378618161
 20
115.7938421182271
 30
0.0
 10
337.363213607285
 20
115.7818326566121
 30
0.0
 10
337.3156595614725
 20
115.7624573186678
 30
0.0
 10
337.2719614287574
 20
115.7351131593649
 30
0.0
 10
337.2338594652701
 20
115.6998978605561
 30
0.0
 10
337.2086925736147
 20
115.6643689572916
 30
0.0
 10
337.1966565866376
 20
115.6388086357713
 30
0.0
 10
337.1920233538551
 20
115.6266470979266
 30
0.0
 10
337.1900248999734
 20
115.6208873167781
 30
0.0
 10
337.1880519315843
 20
115.6146568010852
 30
0.0
 10
337.1863199836048
 20
115.6085469588642
 30
0.0
 10
337.1844888593803
 20
115.6011808812607
 30
0.0
 10
337.1831528712852
 20
115.594853100294
 30
0.0
 10
337.18198296304
 20
115.5882509916007
 30
0.0
 10
337.1811431030109
 20
115.5826123103333
 30
0.0
 10
337.1803061832737
 20
115.5754309554517
 30
0.0
 10
337.1798012899841
 20
115.5689396049724
 30
0.0
 10
337.179487029513
 20
115.5621514846299
 30
0.0
 10
337.1794512007112
 20
115.5583757620203
 30
0.0
 10
337.1794297061904
 20
115.5561106193346
 30
0.0
  0
LINE
  5
295
330
1F
100
AcDbEntity
  8
0
  6
Continuous
 62
     7
370
    15
100
AcDbLine
 10
342.4816600477
 20
115.7961101742
 30
0.0
 11
337.4642136937
 21
115.7961101742
 31
0.0
  0
SPLINE
  5
296
330
1F
100
AcDbEntity
  8
0
  6
Continuous
 62
     7
370
    15
100
AcDbSpline
210
0.0
220
0.0
230
1.0
 70
     8
 71
     3
 72
    26
 73
    22
 74
     0
 42
0.00000001
 43
0.00000001
 12
1.0
 22
0.0
 32
0.0
 13
1.0
 23
0.0
 33
0.0
 40
0.0
 40
0.0
 40
0.0
 40
0.0
 40
0.0088994897814476
 40
0.0133536447267545
 40
0.0178105357723139
 40
0.0356618145721844
 40
0.0499668932683894
 40
0.0714513234923387
 40
0.087833295584092
 40
0.1124048763466762
 40
0.1246835259769163
 40
0.1430805034209422
 40
0.1698404673396146
 40
0.1965784175468436
 40
0.2502468532825451
 40
0.3752355508762042
 40
0.5004166599798234
 40
0.6253287124793588
 40
0.7503910493987774
 40
0.8751807452972952
 40
1.0
 40
1.0
 40
1.0
 40
1.0
 10
342.7545694556101
 20
115.5561106193346
 30
0.0
 10
342.7545634794249
 20
115.5573248516056
 30
0.0
 10
342.7545545121856
 20
115.559146801713
 30
0.0
 10
342.7544989560503
 20
115.5615761995312
 30
0.0
 10
342.7543862329971
 20
115.5652257055268
 30
0.0
 10
342.7541212404002
 20
115.5702149386828
 30
0.0
 10
342.7535065910977
 20
115.5775068272072
 30
0.0
 10
342.7526659794895
 20
115.5845745245852
 30
0.0
 10
342.751358438805
 20
115.5929874054909
 30
0.0
 10
342.7499683958195
 20
115.6001110733248
 30
0.0
 10
342.7482724481306
 20
115.6074442886034
 30
0.0
 10
342.7462907212042
 20
115.6150119846619
 30
0.0
 10
342.743409892195
 20
115.6243668452171
 30
0.0
 10
342.7384077040813
 20
115.6380580160906
 30
0.0
 10
342.7268960698451
 20
115.6634959428875
 30
0.0
 10
342.7040536168391
 20
115.6980812314026
 30
0.0
 10
342.6678874081932
 20
115.7336669765683
 30
0.0
 10
342.6258756108435
 20
115.7616031304572
 30
0.0
 10
342.5798802065512
 20
115.7814429423407
 30
0.0
 10
342.5313551128863
 20
115.7937918693651
 30
0.0
 10
342.4982268265653
 20
115.795337641661
 30
0.0
 10
342.4816607218715
 20
115.7961106193346
 30
0.0
  0
LINE
  5
297
330
1F
100
AcDbEntity
  8
0
  6
Continuous
 62
     7
370
    15
100
AcDbLine
 10
342.754569227
 20
101.0677307384
 30
0.0
 11
342.754569227
 21
115.5561102094
 31
0.0
  0
SPLINE
  5
298
330
1F
100
AcDbEntity
  8
0
  6
Continuous
 62
     7
370
    15
100
AcDbSpline
210
0.0
220
0.0
230
1.0
 70
     8
 71
     3
 72
    21
 73
    17
 74
     0
 42
0.00000001
 43
0.00000001
 12
1.0
 22
0.0
 32
0.0
 13
1.0
 23
0.0
 33
0.0
 40
0.0
 40
0.0
 40
0.0
 40
0.0
 40
0.1249862430843504
 40
0.2502012042886164
 40
0.4991679358600424
 40
0.5616807013086788
 40
0.5928577629711482
 40
0.6239583241453652
 40
0.6523656864566607
 40
0.695159867698318
 40
0.7488476378878038
 40
0.7816196232832787
 40
0.8307416145430578
 40
0.891937469116799
 40
0.9534930685150541
 40
1.0
 40
1.0
 40
1.0
 40
1.0
 10
342.9227433665444
 20
100.8459998666452
 30
0.0
 10
342.9114556698892
 20
100.8505985388927
 30
0.0
 10
342.8888596206996
 20
100.8598042987113
 30
0.0
 10
342.8470488959725
 20
100.885235776843
 30
0.0
 10
342.814945150741
 20
100.9147575697436
 30
0.0
 10
342.7948120228502
 20
100.9420206048113
 30
0.0
 10
342.7880608481011
 20
100.9523711129925
 30
0.0
 10
342.7834558157439
 20
100.9600920232646
 30
0.0
 10
342.7786042573108
 20
100.9690089666216
 30
0.0
 10
342.7732059842124
 20
100.9801845731087
 30
0.0
 10
342.768362903823
 20
100.9921069915834
 30
0.0
 10
342.7640087249642
 20
101.0048896115047
 30
0.0
 10
342.7601497210882
 20
101.018631564568
 30
0.0
 10
342.756790631649
 20
101.0354661166473
 30
0.0
 10
342.7548705480016
 20
101.0522895396986
 30
0.0
 10
342.7546600484284
 20
101.0630849344205
 30
0.0
 10
342.7545694556101
 20
101.0677309544479
 30
0.0
  0
SPLINE
  5
299
330
1F
100
AcDbEntity
  8
0
  6
Continuous
 62
     7
370
    15
100
AcDbSpline
210
0.0
220
0.0
230
1.0
 70
     8
 71
     3
 72
    19
 73
    15
 74
     0
 42
0.00000001
 43
0.00000001
 12
1.0
 22
0.0
 32
0.0
 13
1.0
 23
0.0
 33
0.0
 40
0.0
 40
0.0
 40
0.0
 40
0.0
 40
0.050974594219134
 40
0.1015474888649262
 40
0.151718758236422
 40
0.2014884784329493
 40
0.2508567274123263
 40
0.3772212607370315
 40
0.5013480331852866
 40
0.6272644480192835
 40
0.7511636454046073
 40
0.8349212792319414
 40
0.9178665182985187
 40
0.9999999999999999
 40
0.9999999999999999
 40
0.9999999999999999
 40
0.9999999999999999
 10
361.7757921147143
 20
93.4134809183641
 30
0.0
 10
361.4676130977066
 20
93.54423308950462
 30
0.0
 10
360.8536836338748
 20
93.80470705396381
 30
0.0
 10
359.9311271192672
 20
94.1923454525732
 30
0.0
 10
359.0121609619903
 20
94.57576963813058
 30
0.0
 10
358.0965571506481
 20
94.9548732285987
 30
0.0
 10
356.7079843501192
 20
95.52555246187218
 30
0.0
 10
354.8480927608999
 20
96.2798623894603
 30
0.0
 10
352.4905123666539
 20
97.2181063063699
 30
0.0
 10
350.1265953052434
 20
98.14115994549309
 30
0.0
 10
347.9994758866728
 20
98.95614654393341
 30
0.0
 10
346.1335339228091
 20
99.65958111139872
 30
0.0
 10
344.5278970908514
 20
100.257693743975
 30
0.0
 10
343.4560376890999
 20
100.6505417554415
 30
0.0
 10
342.9227433665444
 20
100.8459998666452
 30
0.0
  0
SPLINE
  5
29A
330
1F
100
AcDbEntity
  8
0
  6
Continuous
 62
     7
370
    15
100
AcDbSpline
210
0.0
220
0.0
230
1.0
 70
     8
 71
     3
 72
    22
 73
    18
 74
     0
 42
0.00000001
 43
0.00000001
 12
1.0
 22
0.0
 32
0.0
 13
1.0
 23
0.0
 33
0.0
 40
0.0
 40
0.0
 40
0.0
 40
0.0
 40
0.015552287582163
 40
0.0311271361215747
 40
0.0623321824091787
 40
0.1248766438992882
 40
0.1963765436356888
 40
0.2498534631938494
 40
0.3210498101314465
 40
0.3746543597241201
 40
0.4372579802885136
 40
0.4730021030697408
 40
0.4997665102919606
 40
0.6244400923826035
 40
0.7495137647452311
 40
0.8745541761316507
 40
1.0
 40
1.0
 40
1.0
 40
1.0
 10
361.9200285107288
 20
93.19174983056142
 30
0.0
 10
361.9200203198973
 20
93.1932504974453
 30
0.0
 10
361.9200039263524
 20
93.1962540081585
 30
0.0
 10
361.9198292892362
 20
93.20226596755774
 30
0.0
 10
361.9192440656648
 20
93.21279750699566
 30
0.0
 10
361.9174810249617
 20
93.22864226520278
 30
0.0
 10
361.9141071727053
 20
93.24637921581662
 30
0.0
 10
361.9092588494065
 20
93.26455751378303
 30
0.0
 10
361.903645244553
 20
93.28064584933718
 30
0.0
 10
361.8965644105721
 20
93.29698453032512
 30
0.0
 10
361.8899793073049
 20
93.30975795599277
 30
0.0
 10
361.8840016731767
 20
93.31989480443886
 30
0.0
 10
361.8745451967636
 20
93.33467532742492
 30
0.0
 10
361.8587167977361
 20
93.3550819892236
 30
0.0
 10
361.8338416292731
 20
93.37893521964098
 30
0.0
 10
361.806166912043
 20
93.39902788973335
 30
0.0
 10
361.7859279660823
 20
93.40865804667774
 30
0.0
 10
361.7757921147143
 20
93.41348091836427
 30
0.0
  0
LINE
  5
29B
330
1F
100
AcDbEntity
  8
0
  6
Continuous
 62
     7
370
    15
100
AcDbLine
 10
335.6964461004
 20
67.796109757
 30
0.0
 11
337.4642136937
 21
67.796109757
 31
0.0
  0
LINE
  5
29C
330
1F
100
AcDbEntity
  8
0
  6
Continuous
 62
     7
370
    15
100
AcDbLine
 10
335.6964461004
 20
115.7961101742
 30
0.0
 11
337.4642136937
 21
115.7961101742
 31
0.0
  0
SPLINE
  5
29D
330
1F
100
AcDbEntity
  8
0
  6
Continuous
 62
     7
370
    15
100
AcDbSpline
210
0.0
220
0.0
230
1.0
 70
     8
 71
     3
 72
    13
 73
     9
 74
     0
 42
0.00000001
 43
0.00000001
 12
1.0
 22
0.0
 32
0.0
 13
1.0
 23
0.0
 33
0.0
 40
0.0
 40
0.0
 40
0.0
 40
0.0
 40
0.1234128814258189
 40
0.2477354045564924
 40
0.3729678846834478
 40
0.499110630273184
 40
0.7475756570145782
 40
1.0
 40
1.0
 40
1.0
 40
1.0
 10
355.0613543913708
 20
103.7125512788511
 30
0.0
 10
355.3434756333675
 20
103.8875311713491
 30
0.0
 10
355.9097975538394
 20
104.238780684013
 30
0.0
 10
356.7579751266725
 20
104.7694517352643
 30
0.0
 10
357.60905443319
 20
105.3053392998722
 30
0.0
 10
358.7362863363689
 20
106.0202785738557
 30
0.0
 10
360.1421551814771
 20
106.9203095714256
 30
0.0
 10
361.2524160271613
 20
107.6437305015225
 30
0.0
 10
361.811934518574
 20
108.0083001330984
 30
0.0
  0
SPLINE
  5
29E
330
1F
100
AcDbEntity
  8
0
  6
Continuous
 62
     7
370
    15
100
AcDbSpline
210
0.0
220
0.0
230
1.0
 70
     8
 71
     3
 72
    58
 73
    54
 74
     0
 42
0.00000001
 43
0.00000001
 12
1.0
 22
0.0
 32
0.0
 13
1.0
 23
0.0
 33
0.0
 40
0.0
 40
0.0
 40
0.0
 40
0.0
 40
0.0624060629841091
 40
0.1249529486710343
 40
0.2493897491801335
 40
0.2993603024625693
 40
0.3740275601622167
 40
0.4053245022537755
 40
0.4209795505683349
 40
0.4288035089439649
 40
0.4366230832016088
 40
0.4423390627203365
 40
0.4509061923147126
 40
0.4594638142713099
 40
0.4722788637955817
 40
0.4829371348016845
 40
0.4893441108418631
 40
0.494154487237362
 40
0.4989689218629392
 40
0.506777840900527
 40
0.5145952688893032
 40
0.5224198251921082
 40
0.5263343806427855
 40
0.5302501854285383
 40
0.5427866008349472
 40
0.546548894916801
 40
0.5503114692642119
 40
0.5615989178240703
 40
0.5673313384643419
 40
0.5716297461429672
 40
0.5759270917613774
 40
0.5812968970211904
 40
0.5866641934603662
 40
0.5920285152625813
 40
0.594709431208948
 40
0.5973894314376116
 40
0.6080988572978739
 40
0.6145156955153392
 40
0.6193233928091104
 40
0.6241280482691214
 40
0.6280260899319604
 40
0.6319266954553698
 40
0.6358297392984075
 40
0.6397350914205044
 40
0.643642617481006
 40
0.6475521790364034
 40
0.6553767472288293
 40
0.6867194607371799
 40
0.7493276145702497
 40
0.8118135905425811
 40
0.874478624770694
 40
0.937143355875868
 40
1.0
 40
1.0
 40
1.0
 40
1.0
 10
355.0995394827404
 20
103.2884062440533
 30
0.0
 10
355.0898256020371
 20
103.2927484752686
 30
0.0
 10
355.0703759207261
 20
103.3014427361821
 30
0.0
 10
355.0344413520248
 20
103.3249815066949
 30
0.0
 10
355.0044567752641
 20
103.3540110123469
 30
0.0
 10
354.9793231462721
 20
103.3899913471172
 30
0.0
 10
354.9667091351442
 20
103.4148071104534
 30
0.0
 10
354.9592806113538
 20
103.4352205750515
 30
0.0
 10
354.9564138287889
 20
103.4445926687121
 30
0.0
 10
354.954917150664
 20
103.4499935352603
 30
0.0
 10
354.9539604591938
 20
103.4536991231969
 30
0.0
 10
354.9530291974937
 20
103.4575501984193
 30
0.0
 10
354.9521313872755
 20
103.4615472420464
 30
0.0
 10
354.951057482725
 20
103.4668116418796
 30
0.0
 10
354.950047988532
 20
103.4724747794567
 30
0.0
 10
354.9492526558893
 20
103.4777846884552
 30
0.0
 10
354.9487497699989
 20
103.4816843977646
 30
0.0
 10
354.9484191613378
 20
103.4845475719013
 30
0.0
 10
354.9480949256836
 20
103.4876655250087
 30
0.0
 10
354.9477688067755
 20
103.4913273889302
 30
0.0
 10
354.9474710124001
 20
103.4955354162348
 30
0.0
 10
354.9472860986669
 20
103.499049120819
 30
0.0
 10
354.9471760305668
 20
103.501863660329
 30
0.0
 10
354.9470657121448
 20
103.5055265959785
 30
0.0
 10
354.9470246624837
 20
103.5091644642873
 30
0.0
 10
354.9470509677722
 20
103.5127742107428
 30
0.0
 10
354.9471046403502
 20
103.5161588493533
 30
0.0
 10
354.9472279851123
 20
103.5198967032477
 30
0.0
 10
354.9474287433578
 20
103.5237268247639
 30
0.0
 10
354.9475930913071
 20
103.5262991158417
 30
0.0
 10
354.9477778603822
 20
103.5288043754486
 30
0.0
 10
354.9480065522419
 20
103.5314987255809
 30
0.0
 10
354.9482869372479
 20
103.5343806054078
 30
0.0
 10
354.9485500697839
 20
103.5367777409625
 30
0.0
 10
354.9487782390104
 20
103.5386922314834
 30
0.0
 10
354.9491378682844
 20
103.5415583542394
 30
0.0
 10
354.9496358233899
 20
103.5450829709788
 30
0.0
 10
354.9502651332214
 20
103.5489723496803
 30
0.0
 10
354.9507624616656
 20
103.5518074597253
 30
0.0
 10
354.9512087925705
 20
103.5541914597416
 30
0.0
 10
354.9516479835374
 20
103.5564103671247
 30
0.0
 10
354.9520745459823
 20
103.5584662016412
 30
0.0
 10
354.9525200615742
 20
103.5605188016035
 30
0.0
 10
354.9529844062874
 20
103.5625679232523
 30
0.0
 10
354.953467461028
 20
103.5646133217232
 30
0.0
 10
354.9541364750618
 20
103.5673358522009
 30
0.0
 10
354.9560793093425
 20
103.5748050410416
 30
0.0
 10
354.9614513772257
 20
103.5922142695351
 30
0.0
 10
354.9724520793733
 20
103.6179190459785
 30
0.0
 10
354.9897654612918
 20
103.646348004303
 30
0.0
 10
355.010629137942
 20
103.6718806338356
 30
0.0
 10
355.0344520106162
 20
103.6944633575857
 30
0.0
 10
355.0523777953805
 20
103.7065158293128
 30
0.0
 10
355.0613543913707
 20
103.7125512788511
 30
0.0
  0
SPLINE
  5
29F
330
1F
100
AcDbEntity
  8
0
  6
Continuous
 62
     7
370
    15
100
AcDbSpline
210
0.0
220
0.0
230
1.0
 70
     8
 71
     3
 72
    13
 73
     9
 74
     0
 42
0.00000001
 43
0.00000001
 12
1.0
 22
0.0
 32
0.0
 13
1.0
 23
0.0
 33
0.0
 40
0.0
 40
0.0
 40
0.0
 40
0.0
 40
0.126492028962731
 40
0.2520624933633432
 40
0.3767115418379273
 40
0.5004393263458221
 40
0.7519002089236658
 40
1.0
 40
1.0
 40
1.0
 40
1.0
 10
361.7757921147143
 20
100.5261157164478
 30
0.0
 10
361.4983692208227
 20
100.643845188541
 30
0.0
 10
360.9455446126334
 20
100.8784464082503
 30
0.0
 10
360.1150258134899
 20
101.2278238775512
 30
0.0
 10
359.2875751405667
 20
101.5737273821836
 30
0.0
 10
358.1770717480866
 20
102.0346791659683
 30
0.0
 10
356.7850270931455
 20
102.6071817877467
 30
0.0
 10
355.6588429951363
 20
103.062352235237
 30
0.0
 10
355.0995394827405
 20
103.2884062440532
 30
0.0
  0
SPLINE
  5
2A0
330
1F
100
AcDbEntity
  8
0
  6
Continuous
 62
     7
370
    15
100
AcDbSpline
210
0.0
220
0.0
230
1.0
 70
     8
 71
     3
 72
    22
 73
    18
 74
     0
 42
0.00000001
 43
0.00000001
 12
1.0
 22
0.0
 32
0.0
 13
1.0
 23
0.0
 33
0.0
 40
0.0
 40
0.0
 40
0.0
 40
0.0
 40
0.0155522875820685
 40
0.0311271361214786
 40
0.0623321824091818
 40
0.1248766438991903
 40
0.1963765436355976
 40
0.2498534631937357
 40
0.3210498101313576
 40
0.3746543597241195
 40
0.4372579802884933
 40
0.4730021030697226
 40
0.4997665102919546
 40
0.6244400923825422
 40
0.7495137647452369
 40
0.874554176131626
 40
1.0
 40
1.0
 40
1.0
 40
1.0
 10
361.9200285107288
 20
100.3043846286452
 30
0.0
 10
361.9200203198973
 20
100.305885295529
 30
0.0
 10
361.9200039263524
 20
100.3088888062422
 30
0.0
 10
361.9198292892362
 20
100.3149007656415
 30
0.0
 10
361.9192440656648
 20
100.3254323050794
 30
0.0
 10
361.9174810249617
 20
100.3412770632865
 30
0.0
 10
361.9141071727053
 20
100.3590140139003
 30
0.0
 10
361.9092588494066
 20
100.3771923118668
 30
0.0
 10
361.903645244553
 20
100.3932806474209
 30
0.0
 10
361.8965644105721
 20
100.4096193284089
 30
0.0
 10
361.889979307305
 20
100.4223927540765
 30
0.0
 10
361.8840016731767
 20
100.4325296025226
 30
0.0
 10
361.8745451967636
 20
100.4473101255086
 30
0.0
 10
361.8587167977361
 20
100.4677167873073
 30
0.0
 10
361.8338416292731
 20
100.4915700177247
 30
0.0
 10
361.806166912043
 20
100.5116626878171
 30
0.0
 10
361.7859279660823
 20
100.5212928447615
 30
0.0
 10
361.7757921147143
 20
100.526115716448
 30
0.0
  0
LINE
  5
2A1
330
1F
100
AcDbEntity
  8
0
  6
Continuous
 62
     7
370
    15
100
AcDbLine
 10
361.9200273847
 20
95.6284502061
 30
0.0
 11
361.9200273847
 21
100.3043842973
 31
0.0
  0
SPLINE
  5
2A2
330
1F
100
AcDbEntity
  8
0
  6
Continuous
 62
     7
370
    15
100
AcDbSpline
210
0.0
220
0.0
230
1.0
 70
     8
 71
     3
 72
    31
 73
    27
 74
     0
 42
0.00000001
 43
0.00000001
 12
1.0
 22
0.0
 32
0.0
 13
1.0
 23
0.0
 33
0.0
 40
0.0
 40
0.0
 40
0.0
 40
0.0
 40
0.0622605175877418
 40
0.1250256861668156
 40
0.24966649985108
 40
0.3122826578492632
 40
0.374696337650996
 40
0.43708528862637
 40
0.4996807631570162
 40
0.6242106665140301
 40
0.686812218912982
 40
0.7491467769178183
 40
0.811641739122148
 40
0.8429889886052174
 40
0.8586543464627563
 40
0.8743015050856552
 40
0.8906230721467835
 40
0.9003991221607693
 40
0.9150765221685916
 40
0.9274204469390943
 40
0.9459534808127654
 40
0.9583146550766733
 40
0.9768525192158011
 40
0.9814851763846886
 40
0.986116528370858
 40
1.0
 40
1.0
 40
1.0
 40
1.0
 10
361.5967232642937
 20
95.4067192355793
 30
0.0
 10
361.6054916935477
 20
95.40336428563101
 30
0.0
 10
361.6230996243289
 20
95.39662719227567
 30
0.0
 10
361.6596945645595
 20
95.38876909285457
 30
0.0
 10
361.6972523812873
 20
95.38738024202065
 30
0.0
 10
361.7341462669219
 20
95.39297103013757
 30
0.0
 10
361.7612609475381
 20
95.4004870244134
 30
0.0
 10
361.787389887749
 20
95.41142297978764
 30
0.0
 10
361.8204233473269
 20
95.43019964145107
 30
0.0
 10
361.8502289319725
 20
95.45536487746179
 30
0.0
 10
361.8750162080293
 20
95.48581324284557
 30
0.0
 10
361.8909176538089
 20
95.51107533978079
 30
0.0
 10
361.9014968151779
 20
95.5338817319902
 30
0.0
 10
361.9074488237943
 20
95.5505465630541
 30
0.0
 10
361.9104195474446
 20
95.56025113705404
 30
0.0
 10
361.9124534034164
 20
95.56770689393525
 30
0.0
 10
361.9140303031411
 20
95.57430455462823
 30
0.0
 10
361.9154026428937
 20
95.58079338687685
 30
0.0
 10
361.9164958654143
 20
95.58668484571017
 30
0.0
 10
361.9176513056397
 20
95.59401849733548
 30
0.0
 10
361.9185351928405
 20
95.60101721308313
 30
0.0
 10
361.9193009082379
 20
95.6090493367351
 30
0.0
 10
361.9196757776002
 20
95.61484123815174
 30
0.0
 10
361.9198636806374
 20
95.61937831381026
 30
0.0
 10
361.9199888688145
 20
95.62315740166929
 30
0.0
 10
361.9200115231872
 20
95.62618217538596
 30
0.0
 10
361.920028510729
 20
95.628450323382
 30
0.0
  0
SPLINE
  5
2A3
330
1F
100
AcDbEntity
  8
0
  6
Continuous
 62
     7
370
    15
100
AcDbSpline
210
0.0
220
0.0
230
1.0
 70
     8
 71
     3
 72
    19
 73
    15
 74
     0
 42
0.00000001
 43
0.00000001
 12
1.0
 22
0.0
 32
0.0
 13
1.0
 23
0.0
 33
0.0
 40
0.0
 40
0.0
 40
0.0
 40
0.0
 40
0.0492621496926021
 40
0.0987927378008131
 40
0.1485918679629675
 40
0.1986596421494507
 40
0.2489961606976829
 40
0.3729881880230941
 40
0.4988219601913781
 40
0.6230194515649697
 40
0.7492384450358622
 40
0.8318316631453625
 40
0.9154187561310513
 40
1.0
 40
1.0
 40
1.0
 40
1.0
 10
344.9159496507774
 20
102.0294897050262
 30
0.0
 10
345.198313280319
 20
101.9245211542027
 30
0.0
 10
345.764579190188
 20
101.7140120598261
 30
0.0
 10
346.6133529298533
 20
101.3957593092615
 30
0.0
 10
347.4644955971944
 20
101.0746005286976
 30
0.0
 10
348.3177154767712
 20
100.7504163379574
 30
0.0
 10
349.5886134855008
 20
100.2642411400206
 30
0.0
 10
351.279698996601
 20
99.60961720160843
 30
0.0
 10
353.3702031710968
 20
98.78662456456695
 30
0.0
 10
355.4555905188664
 20
97.95170363959282
 30
0.0
 10
357.2852345867975
 20
97.20683139292376
 30
0.0
 10
358.8792341532159
 20
96.54862051014386
 30
0.0
 10
360.2383079628858
 20
95.98160058101402
 30
0.0
 10
361.1421371258924
 20
95.59910008596376
 30
0.0
 10
361.5967232642938
 20
95.40671923557927
 30
0.0
  0
SPLINE
  5
2A4
330
1F
100
AcDbEntity
  8
0
  6
Continuous
 62
     7
370
    15
100
AcDbSpline
210
0.0
220
0.0
230
1.0
 70
     8
 71
     3
 72
    22
 73
    18
 74
     0
 42
0.00000001
 43
0.00000001
 12
1.0
 22
0.0
 32
0.0
 13
1.0
 23
0.0
 33
0.0
 40
0.0
 40
0.0
 40
0.0
 40
0.0
 40
0.0155537540913564
 40
0.0311321658520077
 40
0.0623486090387415
 40
0.124916368530143
 40
0.1963995530355542
 40
0.2498045656175702
 40
0.3211568450850183
 40
0.374834885810683
 40
0.4106293173392842
 40
0.4374492192071455
 40
0.4998330455216969
 40
0.6248236846520542
 40
0.7497950494490203
 40
0.8748900328650333
 40
1.0
 40
1.0
 40
1.0
 40
1.0
 10
344.7504371801151
 20
102.2512207928289
 30
0.0
 10
344.7504472304746
 20
102.2496732228271
 30
0.0
 10
344.7504673471266
 20
102.2465756294307
 30
0.0
 10
344.750681336601
 20
102.2403753938342
 30
0.0
 10
344.7513972719594
 20
102.229516371182
 30
0.0
 10
344.7535476147229
 20
102.2132015819277
 30
0.0
 10
344.7576397129193
 20
102.1950039771744
 30
0.0
 10
344.7635118470693
 20
102.1764306759401
 30
0.0
 10
344.7702721583555
 20
102.1600790650239
 30
0.0
 10
344.7775122529197
 20
102.1459254164994
 30
0.0
 10
344.7833058139481
 20
102.136023710907
 30
0.0
 10
344.7899357275273
 20
102.1256470524485
 30
0.0
 10
344.8022650067428
 20
102.1085501780287
 30
0.0
 10
344.8229833657667
 20
102.0858676282365
 30
0.0
 10
344.8513396977078
 20
102.0626587042287
 30
0.0
 10
344.8824013094726
 20
102.0433650782384
 30
0.0
 10
344.9047664238913
 20
102.0341150140788
 30
0.0
 10
344.9159496507769
 20
102.0294897050254
 30
0.0
  0
LINE
  5
2A5
330
1F
100
AcDbEntity
  8
0
  6
Continuous
 62
     7
370
    15
100
AcDbLine
 10
344.7504363453
 20
102.2512210073
 30
0.0
 11
344.7504363453
 21
106.9271550985
 31
0.0
  0
SPLINE
  5
2A6
330
1F
100
AcDbEntity
  8
0
  6
Continuous
 62
     7
370
    15
100
AcDbSpline
210
0.0
220
0.0
230
1.0
 70
     8
 71
     3
 72
    36
 73
    32
 74
     0
 42
0.00000001
 43
0.00000001
 12
1.0
 22
0.0
 32
0.0
 13
1.0
 23
0.0
 33
0.0
 40
0.0
 40
0.0
 40
0.0
 40
0.0
 40
0.061941097223823
 40
0.124691905088491
 40
0.2492197764296796
 40
0.3117496084190852
 40
0.3744319775765929
 40
0.4990956233631477
 40
0.5617279287659287
 40
0.6242222258811109
 40
0.748881439747338
 40
0.7989617019955257
 40
0.8739442203773676
 40
0.8818155018683893
 40
0.8896904226991884
 40
0.8959920068173481
 40
0.905445186791904
 40
0.9180470192677518
 40
0.9256049140826491
 40
0.9312707922426481
 40
0.9369339088148073
 40
0.9447938064050704
 40
0.952646201187222
 40
0.9604899085096275
 40
0.9683238115343658
 40
0.9761987000187408
 40
0.980165494786896
 40
0.9841325842821864
 40
0.9904800219314944
 40
0.9952403224496034
 40
1.0
 40
1.0
 40
1.0
 40
1.0
 10
345.1208532414723
 20
107.1488861858948
 30
0.0
 10
345.1110870082297
 20
107.1521633371262
 30
0.0
 10
345.0914268749234
 20
107.1587604793891
 30
0.0
 10
345.0507549012946
 20
107.1665297616438
 30
0.0
 10
345.009115674222
 20
107.1682988820374
 30
0.0
 10
344.9679575966863
 20
107.1633755170554
 30
0.0
 10
344.9274683538654
 20
107.1542302230742
 30
0.0
 10
344.8885124992482
 20
107.1385630514728
 30
0.0
 10
344.8529190252671
 20
107.1165561067394
 30
0.0
 10
344.8199614290719
 20
107.0905312146315
 30
0.0
 10
344.7933836421485
 20
107.0598030322997
 30
0.0
 10
344.7719754974516
 20
107.0231061813416
 30
0.0
 10
344.7633651781329
 20
107.0019588021446
 30
0.0
 10
344.7589463619863
 20
106.9870908779676
 30
0.0
 10
344.7579373600171
 20
106.9834573601599
 30
0.0
 10
344.7569196769425
 20
106.9795450683596
 30
0.0
 10
344.7557835525304
 20
106.9748270535393
 30
0.0
 10
344.7547227904632
 20
106.9698689885915
 30
0.0
 10
344.7538993628928
 20
106.9655236153909
 30
0.0
 10
344.7533463815737
 20
106.9623362386661
 30
0.0
 10
344.7528277090984
 20
106.9590902080758
 30
0.0
 10
344.7523077477302
 20
106.9554647899442
 30
0.0
 10
344.7518096041799
 20
106.9514588142167
 30
0.0
 10
344.7513876273881
 20
106.9474479615862
 30
0.0
 10
344.7510416728763
 20
106.9434254550592
 30
0.0
 10
344.7508178286761
 20
106.9400597402508
 30
0.0
 10
344.7506763131607
 20
106.937353207357
 30
0.0
 10
344.7505715696826
 20
106.9349069957884
 30
0.0
 10
344.7504935227545
 20
106.9323235382016
 30
0.0
 10
344.7504452617412
 20
106.9296033973165
 30
0.0
 10
344.7504398738729
 20
106.9279711622302
 30
0.0
 10
344.7504371801151
 20
106.9271550980921
 30
0.0
  0
SPLINE
  5
2A7
330
1F
100
AcDbEntity
  8
0
  6
Continuous
 62
     7
370
    15
100
AcDbSpline
210
0.0
220
0.0
230
1.0
 70
     8
 71
     3
 72
    13
 73
     9
 74
     0
 42
0.00000001
 43
0.00000001
 12
1.0
 22
0.0
 32
0.0
 13
1.0
 23
0.0
 33
0.0
 40
0.0
 40
0.0
 40
0.0
 40
0.0
 40
0.1691437100151299
 40
0.3372960926749627
 40
0.5044575253782313
 40
0.6706283922772156
 40
0.835809084437108
 40
0.9999999999999999
 40
0.9999999999999999
 40
0.9999999999999999
 40
0.9999999999999999
 10
350.6358561263118
 20
105.0535010675272
 30
0.0
 10
350.3276150050938
 20
105.1729619516189
 30
0.0
 10
349.7129393202621
 20
105.4111835764611
 30
0.0
 10
348.7897017855273
 20
105.7656446677827
 30
0.0
 10
347.8691556577291
 20
106.1166768778662
 30
0.0
 10
346.9510600629122
 20
106.4641145978208
 30
0.0
 10
346.0358422979538
 20
106.8081301196011
 30
0.0
 10
345.4252379624062
 20
107.0355286113854
 30
0.0
 10
345.1208532414724
 20
107.1488861858947
 30
0.0
  0
SPLINE
  5
2A8
330
1F
100
AcDbEntity
  8
0
  6
Continuous
 62
     7
370
    15
100
AcDbSpline
210
0.0
220
0.0
230
1.0
 70
     8
 71
     3
 72
    71
 73
    67
 74
     0
 42
0.00000001
 43
0.00000001
 12
1.0
 22
0.0
 32
0.0
 13
1.0
 23
0.0
 33
0.0
 40
0.0
 40
0.0
 40
0.0
 40
0.0
 40
0.0077878083647568
 40
0.0155857146874214
 40
0.0194881951641736
 40
0.0233928330561088
 40
0.0312079819261287
 40
0.043726147420183
 40
0.0512439552668517
 40
0.0568848912920426
 40
0.0625275175392643
 40
0.0664467762878583
 40
0.0703664771938573
 40
0.0742864648830163
 40
0.0782065827523323
 40
0.082126673114221
 40
0.0860465773399239
 40
0.0899661360029112
 40
0.093885189021499
 40
0.0958444804249534
 40
0.0978035851612375
 40
0.0997624830998412
 40
0.1017211540961093
 40
0.103679577995568
 40
0.1056377346385104
 40
0.1075956038643532
 40
0.1095531655161311
 40
0.1115103994450331
 40
0.1134672855148232
 40
0.1154238036062339
 40
0.1173799336215212
 40
0.1193356554890192
 40
0.1212909491675141
 40
0.1232457946507799
 40
0.125200171972176
 40
0.1271540612090283
 40
0.1291074424872126
 40
0.1310602959857775
 40
0.1330126019413126
 40
0.1349643406528274
 40
0.1369154924859196
 40
0.138866037877637
 40
0.1408159573411115
 40
0.1427652314699007
 40
0.1447138409429996
 40
0.1466617665290546
 40
0.148608989091542
 40
0.1505554895930133
 40
0.1515284637521344
 40
0.1525022548006112
 40
0.1534766110658573
 40
0.1544511077676984
 40
0.1554257436376866
 40
0.1564005173912523
 40
0.1642034140779832
 40
0.1720143470428364
 40
0.1876566445478867
 40
0.2503275133611824
 40
0.3751664739097984
 40
0.5000455619254447
 40
0.5626695282746588
 40
0.6252276929678924
 40
0.7500110897615758
 40
0.8747863411608587
 40
0.9375679129542132
 40
1.0
 40
1.0
 40
1.0
 40
1.0
 10
350.9890639321045
 20
105.2656665141868
 30
0.0
 10
350.9890029515606
 20
105.2643830670072
 30
0.0
 10
350.9888809114032
 20
105.2618145084834
 30
0.0
 10
350.9886566499077
 20
105.2586072660432
 30
0.0
 10
350.9884469590738
 20
105.2560418536787
 30
0.0
 10
350.9882142914092
 20
105.2534757499666
 30
0.0
 10
350.9878021599859
 20
105.2494998137768
 30
0.0
 10
350.9872270434238
 20
105.2449436278894
 30
0.0
 10
350.986606087439
 20
105.2407574180826
 30
0.0
 10
350.9861080907373
 20
105.2376996758978
 30
0.0
 10
350.9856755507245
 20
105.2352327743508
 30
0.0
 10
350.9852696670542
 20
105.2330496769139
 30
0.0
 10
350.9848997442455
 20
105.2311488813516
 30
0.0
 10
350.9845139447532
 20
105.229251444041
 30
0.0
 10
350.9841123328642
 20
105.227357581836
 30
0.0
 10
350.9836949730733
 20
105.2254675127575
 30
0.0
 10
350.9832619297423
 20
105.2235814542168
 30
0.0
 10
350.9828132675406
 20
105.2216996248985
 30
0.0
 10
350.9824264036419
 20
105.2201350720842
 30
0.0
 10
350.9821091625979
 20
105.2188857471307
 30
0.0
 10
350.9818673764389
 20
105.2179499830488
 30
0.0
 10
350.9816217337618
 20
105.2170154395927
 30
0.0
 10
350.9813722425594
 20
105.2160821437472
 30
0.0
 10
350.9811189109014
 20
105.2151501227952
 30
0.0
 10
350.980861746837
 20
105.2142194039396
 30
0.0
 10
350.9806007584203
 20
105.2132900144047
 30
0.0
 10
350.9803359537041
 20
105.2123619814092
 30
0.0
 10
350.9800673407416
 20
105.2114353321734
 30
0.0
 10
350.9797949275855
 20
105.2105100939169
 30
0.0
 10
350.9795187222884
 20
105.2095862938596
 30
0.0
 10
350.979238732903
 20
105.2086639592214
 30
0.0
 10
350.9789549674816
 20
105.2077431172222
 30
0.0
 10
350.9786674340766
 20
105.2068237950818
 30
0.0
 10
350.9783761407402
 20
105.2059060200201
 30
0.0
 10
350.9780810955244
 20
105.2049898192569
 30
0.0
 10
350.9777823064813
 20
105.2040752200122
 30
0.0
 10
350.9774797816626
 20
105.2031622495058
 30
0.0
 10
350.9771735291201
 20
105.2022509349576
 30
0.0
 10
350.9768635569054
 20
105.2013413035876
 30
0.0
 10
350.9765498730699
 20
105.2004333826155
 30
0.0
 10
350.976232485665
 20
105.1995271992614
 30
0.0
 10
350.975911402742
 20
105.1986227807449
 30
0.0
 10
350.9755866323521
 20
105.1977201542866
 30
0.0
 10
350.9752581825459
 20
105.196819347104
 30
0.0
 10
350.974926061376
 20
105.1959203864259
 30
0.0
 10
350.9745902768867
 20
105.1950232994389
 30
0.0
 10
350.9742508371531
 20
105.1941281134876
 30
0.0
 10
350.9739649041754
 20
105.1933836610541
 30
0.0
 10
350.9737342774224
 20
105.192788921991
 30
0.0
 10
350.9735602946851
 20
105.1923430952951
 30
0.0
 10
350.9733852881504
 20
105.191897441181
 30
0.0
 10
350.9732092977947
 20
105.1914520658052
 30
0.0
 10
350.9730323513476
 20
105.1910070357237
 30
0.0
 10
350.9724390723119
 20
105.189524067727
 30
0.0
 10
350.9714062038769
 20
105.1870120343978
 30
0.0
 10
350.9693822722149
 20
105.1823152344771
 30
0.0
 10
350.9634879316638
 20
105.1695289501015
 30
0.0
 10
350.947191745813
 20
105.1406191352901
 30
0.0
 10
350.9140942123976
 20
105.1018481455561
 30
0.0
 10
350.8732545331787
 20
105.0725575667542
 30
0.0
 10
350.8375627947909
 20
105.0553246704623
 30
0.0
 10
350.8003430208604
 20
105.0421937217142
 30
0.0
 10
350.751676117923
 20
105.0336956215865
 30
0.0
 10
350.7024048715052
 20
105.0358801393128
 30
0.0
 10
350.6638019114022
 20
105.0436767023236
 30
0.0
 10
350.6451540386043
 20
105.0502323783242
 30
0.0
 10
350.6358561263116
 20
105.0535010675272
 30
0.0
  0
SPLINE
  5
2A9
330
1F
100
AcDbEntity
  8
0
  6
Continuous
 62
     7
370
    15
100
AcDbSpline
210
0.0
220
0.0
230
1.0
 70
     8
 71
     3
 72
    29
 73
    25
 74
     0
 42
0.00000001
 43
0.00000001
 12
1.0
 22
0.0
 32
0.0
 13
1.0
 23
0.0
 33
0.0
 40
0.0
 40
0.0
 40
0.0
 40
0.0
 40
0.0210094922431438
 40
0.0419705704938931
 40
0.0628991447364428
 40
0.094275859601199
 40
0.1255454382403208
 40
0.1879482572275242
 40
0.2501660999415891
 40
0.3122762227441443
 40
0.3743973993587522
 40
0.4366981958893846
 40
0.4994040346158617
 40
0.5621527573364665
 40
0.6245302193524749
 40
0.6867727336646745
 40
0.7491876473813192
 40
0.7700631037239725
 40
0.8117650762688458
 40
0.8742797313237288
 40
0.9056385815420752
 40
0.9369593346645605
 40
0.9684758782541585
 40
0.9999999999999999
 40
0.9999999999999999
 40
0.9999999999999999
 40
0.9999999999999999
 10
345.0284533660951
 20
110.7524183188712
 30
0.0
 10
345.0914257166031
 20
110.7540148072045
 30
0.0
 10
345.2172253049783
 20
110.7572041049448
 30
0.0
 10
345.4057113218316
 20
110.7551859028657
 30
0.0
 10
345.6250106107158
 20
110.746997666749
 30
0.0
 10
345.8746030454743
 20
110.7285456498119
 30
0.0
 10
346.2463034097023
 20
110.6847654779104
 30
0.0
 10
346.7054055875285
 20
110.5996885688473
 30
0.0
 10
347.2439222945478
 20
110.44862804704
 30
0.0
 10
347.7658454867091
 20
110.2484588543372
 30
0.0
 10
348.2674208291198
 20
109.9989612446433
 30
0.0
 10
348.7448847023504
 20
109.6998452571505
 30
0.0
 10
349.1930560580442
 20
109.3522472932797
 30
0.0
 10
349.6050648215058
 20
108.9588021124444
 30
0.0
 10
349.9734962676561
 20
108.5226485469859
 30
0.0
 10
350.293141983717
 20
108.0475218142247
 30
0.0
 10
350.5002205182012
 20
107.6503663648361
 30
0.0
 10
350.6517835126318
 20
107.2965506993376
 30
0.0
 10
350.7831863966701
 20
106.9332561396785
 30
0.0
 10
350.8876408942989
 20
106.5258215788432
 30
0.0
 10
350.9511414501566
 20
106.1427742675348
 30
0.0
 10
350.981720995803
 20
105.8519981730859
 30
0.0
 10
350.9964455913319
 20
105.5592066778229
 30
0.0
 10
350.9915246823621
 20
105.3635210765601
 30
0.0
 10
350.9890639321045
 20
105.2656665141868
 30
0.0
  0
SPLINE
  5
2AA
330
1F
100
AcDbEntity
  8
0
  6
Continuous
 62
     7
370
    15
100
AcDbSpline
210
0.0
220
0.0
230
1.0
 70
     8
 71
     3
 72
    26
 73
    22
 74
     0
 42
0.00000001
 43
0.00000001
 12
1.0
 22
0.0
 32
0.0
 13
1.0
 23
0.0
 33
0.0
 40
0.0
 40
0.0
 40
0.0
 40
0.0
 40
0.0089038514824168
 40
0.0133602235329036
 40
0.017819350457098
 40
0.0356796727601959
 40
0.0499920030304754
 40
0.07148703605608
 40
0.0878766712115793
 40
0.112458652978257
 40
0.124741901780127
 40
0.1431448460331464
 40
0.1699112262624021
 40
0.1966660640113072
 40
0.2503652287917343
 40
0.3753862721916189
 40
0.5006145010345967
 40
0.6255766965548236
 40
0.75059046420663
 40
0.8753162185487866
 40
1.0
 40
1.0
 40
1.0
 40
1.0
 10
344.7504371801151
 20
110.9922504870319
 30
0.0
 10
344.7504432792643
 20
110.9910136761521
 30
0.0
 10
344.7504524310339
 20
110.989157842207
 30
0.0
 10
344.7505091320865
 20
110.9866832668538
 30
0.0
 10
344.7506241811227
 20
110.9829658721508
 30
0.0
 10
344.7508946506881
 20
110.9778838695953
 30
0.0
 10
344.7515220468052
 20
110.9704566833666
 30
0.0
 10
344.7523801519171
 20
110.9632582925671
 30
0.0
 10
344.7537150125137
 20
110.9546907920529
 30
0.0
 10
344.7551342260605
 20
110.9474372038665
 30
0.0
 10
344.7568659294633
 20
110.9399715921697
 30
0.0
 10
344.7588894614797
 20
110.9322688644167
 30
0.0
 10
344.7618320868402
 20
110.9227482014381
 30
0.0
 10
344.7669423605094
 20
110.9088176678078
 30
0.0
 10
344.7786977665173
 20
110.8829511673403
 30
0.0
 10
344.8020364075305
 20
110.8478499455999
 30
0.0
 10
344.8389838468872
 20
110.8119200640117
 30
0.0
 10
344.8818882051622
 20
110.7840205301952
 30
0.0
 10
344.928785467287
 20
110.7646448165503
 30
0.0
 10
344.9781561022584
 20
110.7532117282992
 30
0.0
 10
345.0116894925835
 20
110.7526827590073
 30
0.0
 10
345.0284533660951
 20
110.7524183188712
 30
0.0
  0
LINE
  5
2AB
330
1F
100
AcDbEntity
  8
0
  6
Continuous
 62
     7
370
    15
100
AcDbLine
 10
344.7504363453
 20
110.9922496141
 30
0.0
 11
344.7504363453
 21
115.5561102094
 31
0.0
  0
SPLINE
  5
2AC
330
1F
100
AcDbEntity
  8
0
  6
Continuous
 62
     7
370
    15
100
AcDbSpline
210
0.0
220
0.0
230
1.0
 70
     8
 71
     3
 72
    25
 73
    21
 74
     0
 42
0.00000001
 43
0.00000001
 12
1.0
 22
0.0
 32
0.0
 13
1.0
 23
0.0
 33
0.0
 40
0.0
 40
0.0
 40
0.0
 40
0.0
 40
0.1246608180780601
 40
0.2496281564868476
 40
0.374175760723132
 40
0.4994179065416013
 40
0.6240922110139586
 40
0.7493659407258361
 40
0.7805833618149669
 40
0.7961513696831698
 40
0.8117589613422624
 40
0.836808120406001
 40
0.851874166529852
 40
0.8745051538016857
 40
0.8909407871596314
 40
0.9155936787841111
 40
0.9463715461897363
 40
0.9678682897893267
 40
0.9807397333982004
 40
0.9999999999999999
 40
0.9999999999999999
 40
0.9999999999999999
 40
0.9999999999999999
 10
345.0184433896235
 20
115.7961106193346
 30
0.0
 10
345.0021163314847
 20
115.7953187011555
 30
0.0
 10
344.9694220696718
 20
115.7937329176015
 30
0.0
 10
344.9216249792582
 20
115.7812704009642
 30
0.0
 10
344.8763426935498
 20
115.7612488783406
 30
0.0
 10
344.8351463538474
 20
115.7332045569695
 30
0.0
 10
344.7997426041877
 20
115.6975224882319
 30
0.0
 10
344.7790816389252
 20
115.6655880646759
 30
0.0
 10
344.769266561609
 20
115.644601889318
 30
0.0
 10
344.7660358515849
 20
115.6368378031766
 30
0.0
 10
344.7633296344083
 20
115.6297541379008
 30
0.0
 10
344.7609128158772
 20
115.6226288041699
 30
0.0
 10
344.7584877250688
 20
115.6145073528674
 30
0.0
 10
344.756636305035
 20
115.6074267418302
 30
0.0
 10
344.7547538860192
 20
115.5990169486313
 30
0.0
 10
344.7529864701942
 20
115.5894520083966
 30
0.0
 10
344.7516142451555
 20
115.579122125621
 30
0.0
 10
344.7508877744099
 20
115.5703276291249
 30
0.0
 10
344.7505119120445
 20
115.5630724630081
 30
0.0
 10
344.7504651875391
 20
115.5587197224185
 30
0.0
 10
344.7504371801151
 20
115.5561106193346
 30
0.0
  0
LINE
  5
2AD
330
1F
100
AcDbEntity
  8
0
  6
Continuous
 62
     7
370
    15
100
AcDbLine
 10
349.7469149029
 20
115.7961101742
 30
0.0
 11
345.0184430426
 21
115.7961101742
 31
0.0
  0
SPLINE
  5
2AE
330
1F
100
AcDbEntity
  8
0
  6
Continuous
 62
     7
370
    15
100
AcDbSpline
210
0.0
220
0.0
230
1.0
 70
     8
 71
     3
 72
    27
 73
    23
 74
     0
 42
0.00000001
 43
0.00000001
 12
1.0
 22
0.0
 32
0.0
 13
1.0
 23
0.0
 33
0.0
 40
0.0
 40
0.0
 40
0.0
 40
0.0
 40
0.008896093399959
 40
0.0133483258742178
 40
0.0178031610105631
 40
0.0356452040504053
 40
0.0499419835452515
 40
0.0714137509452317
 40
0.0877868093396839
 40
0.1123486572687544
 40
0.1430195958387398
 40
0.1644454991777094
 40
0.1965011752573458
 40
0.2232767655272282
 40
0.2501116300862408
 40
0.3217207080659072
 40
0.375263407824948
 40
0.5003021719994986
 40
0.6251297497727363
 40
0.7502051450207234
 40
0.8750379003470238
 40
1.0
 40
1.0
 40
1.0
 40
1.0
 10
350.004438943784
 20
115.5561106193346
 30
0.0
 10
350.0044335533099
 20
115.5572989093807
 30
0.0
 10
350.0044254650625
 20
115.559081903562
 30
0.0
 10
350.0043753250375
 20
115.5614593928047
 30
0.0
 10
350.0042735711851
 20
115.5650307408219
 30
0.0
 10
350.0040342709535
 20
115.5699133284971
 30
0.0
 10
350.0034786931453
 20
115.5770511000996
 30
0.0
 10
350.0027182284513
 20
115.5839719736193
 30
0.0
 10
350.0015340976571
 20
115.5922156683993
 30
0.0
 10
349.9998386063648
 20
115.6016164275874
 30
0.0
 10
349.9975422710511
 20
115.6115741577914
 30
0.0
 10
349.9945290082186
 20
115.6223628962888
 30
0.0
 10
349.9911696470086
 20
115.6324937662605
 30
0.0
 10
349.9870307346263
 20
115.6430845027341
 30
0.0
 10
349.9802840609447
 20
115.6582416457204
 30
0.0
 10
349.970599070901
 20
115.6758849713076
 30
0.0
 10
349.9518527550053
 20
115.7029378174469
 30
0.0
 10
349.9245439327618
 20
115.7320133043385
 30
0.0
 10
349.88495686881
 20
115.7605061153868
 30
0.0
 10
349.841174376365
 20
115.7809068014636
 30
0.0
 10
349.7946882108878
 20
115.7937089561994
 30
0.0
 10
349.7628453891932
 20
115.7953097886513
 30
0.0
 10
349.7469157342043
 20
115.7961106193346
 30
0.0
  0
LINE
  5
2AF
330
1F
100
AcDbEntity
  8
0
  6
Continuous
 62
     7
370
    15
100
AcDbLine
 10
350.0044404959
 20
114.1780899377
 30
0.0
 11
350.0044404959
 21
115.5561102094
 31
0.0
  0
SPLINE
  5
2B0
330
1F
100
AcDbEntity
  8
0
  6
Continuous
 62
     7
370
    15
100
AcDbSpline
210
0.0
220
0.0
230
1.0
 70
     8
 71
     3
 72
    19
 73
    15
 74
     0
 42
0.00000001
 43
0.00000001
 12
1.0
 22
0.0
 32
0.0
 13
1.0
 23
0.0
 33
0.0
 40
0.0
 40
0.0
 40
0.0
 40
0.0
 40
0.1250006416628563
 40
0.2502623960966813
 40
0.499421620974718
 40
0.5244775300516055
 40
0.5620243107174561
 40
0.6244263663797656
 40
0.6742016968146897
 40
0.7492038498809189
 40
0.8208546615626593
 40
0.8745610378735048
 40
0.9245456457139801
 40
1.0
 40
1.0
 40
1.0
 40
1.0
 10
350.1415260553815
 20
113.9658462584397
 30
0.0
 10
350.1319663960513
 20
113.9710017814103
 30
0.0
 10
350.1128271083003
 20
113.9813235966793
 30
0.0
 10
350.0780256368747
 20
114.0078506753173
 30
0.0
 10
350.0541726479515
 20
114.0344708420186
 30
0.0
 10
350.0391151729933
 20
114.0577111609183
 30
0.0
 10
350.0333910098751
 20
114.0672498065116
 30
0.0
 10
350.0271697973852
 20
114.0790790078955
 30
0.0
 10
350.0203690846272
 20
114.0943806768256
 30
0.0
 10
350.014433665367
 20
114.1109859463882
 30
0.0
 10
350.0098272284857
 20
114.1284164992646
 30
0.0
 10
350.0069451687891
 20
114.1439409990459
 30
0.0
 10
350.0049007230596
 20
114.1599685590759
 30
0.0
 10
350.0046123853782
 20
114.1712834739054
 30
0.0
 10
350.004438943784
 20
114.1780896494173
 30
0.0
  0
SPLINE
  5
2B1
330
1F
100
AcDbEntity
  8
0
  6
Continuous
 62
     7
370
    15
100
AcDbSpline
210
0.0
220
0.0
230
1.0
 70
     8
 71
     3
 72
    20
 73
    16
 74
     0
 42
0.00000001
 43
0.00000001
 12
1.0
 22
0.0
 32
0.0
 13
1.0
 23
0.0
 33
0.0
 40
0.0
 40
0.0
 40
0.0
 40
0.0
 40
0.0418126887354057
 40
0.0836810764807687
 40
0.1256491516878341
 40
0.187945054328475
 40
0.2505154491164961
 40
0.3749880897618426
 40
0.4994116289502078
 40
0.6240041223415586
 40
0.7489081244568806
 40
0.8114610060960962
 40
0.8742349045047375
 40
0.9370343432053391
 40
1.0
 40
1.0
 40
1.0
 40
1.0
 10
354.7691562651244
 20
109.1121290910035
 30
0.0
 10
354.730590799701
 20
109.2012132975724
 30
0.0
 10
354.6534084954959
 20
109.3795003804791
 30
0.0
 10
354.5271868166631
 20
109.6419342190697
 30
0.0
 10
354.3718054831509
 20
109.9422642657726
 30
0.0
 10
354.1813316465633
 20
110.2773018689515
 30
0.0
 10
353.8746156416416
 20
110.7631165451851
 30
0.0
 10
353.4514915754777
 20
111.3407182601689
 30
0.0
 10
352.8863812838923
 20
111.9816251606747
 30
0.0
 10
352.2685441011447
 20
112.5681532663667
 30
0.0
 10
351.714066677378
 20
113.0091765728494
 30
0.0
 10
351.2490977885267
 20
113.3325024003273
 30
0.0
 10
350.8896881840455
 20
113.5597821751648
 30
0.0
 10
350.5210322298707
 20
113.7729393671215
 30
0.0
 10
350.2681395258647
 20
113.9014873293055
 30
0.0
 10
350.1415260553814
 20
113.9658462584397
 30
0.0
  0
SPLINE
  5
2B2
330
1F
100
AcDbEntity
  8
0
  6
Continuous
 62
     7
370
    15
100
AcDbSpline
210
0.0
220
0.0
230
1.0
 70
     8
 71
     3
 72
    17
 73
    13
 74
     0
 42
0.00000001
 43
0.00000001
 12
1.0
 22
0.0
 32
0.0
 13
1.0
 23
0.0
 33
0.0
 40
0.0
 40
0.0
 40
0.0
 40
0.0
 40
0.0621723318191219
 40
0.1251049378623301
 40
0.2499151775045361
 40
0.3750727763727468
 40
0.4998271154340848
 40
0.624787280432917
 40
0.749563528883285
 40
0.8743572754732691
 40
0.9373792576051517
 40
1.0
 40
1.0
 40
1.0
 40
1.0
 10
355.1308002873199
 20
109.0006156058001
 30
0.0
 10
355.1231088170281
 20
108.9961847193885
 30
0.0
 10
355.1076318213168
 20
108.9872687634804
 30
0.0
 10
355.0747751043339
 20
108.9738433798671
 30
0.0
 10
355.0316403506951
 20
108.9633793749211
 30
0.0
 10
354.9786693302919
 20
108.9619507709691
 30
0.0
 10
354.9264160933584
 20
108.9714452724142
 30
0.0
 10
354.8769167560753
 20
108.9916334893204
 30
0.0
 10
354.8323356162518
 20
109.0223078741219
 30
0.0
 10
354.8011848781396
 20
109.0559332777514
 30
0.0
 10
354.7809079092889
 20
109.0867891106496
 30
0.0
 10
354.773065131215
 20
109.1037004329745
 30
0.0
 10
354.7691562651244
 20
109.1121290910035
 30
0.0
  0
SPLINE
  5
2B3
330
1F
100
AcDbEntity
  8
0
  6
Continuous
 62
     7
370
    15
100
AcDbSpline
210
0.0
220
0.0
230
1.0
 70
     8
 71
     3
 72
    13
 73
     9
 74
     0
 42
0.00000001
 43
0.00000001
 12
1.0
 22
0.0
 32
0.0
 13
1.0
 23
0.0
 33
0.0
 40
0.0
 40
0.0
 40
0.0
 40
0.0
 40
0.1266167745159731
 40
0.252297479005167
 40
0.3770423511981333
 40
0.5008516342179488
 40
0.7521519037574755
 40
1.0
 40
1.0
 40
1.0
 40
1.0
 10
361.5605161741566
 20
113.0890623323517
 30
0.0
 10
361.2933332369777
 20
112.9149734349888
 30
0.0
 10
360.7609426296419
 20
112.5680826687745
 30
0.0
 10
359.9609270811843
 20
112.0511821012849
 30
0.0
 10
359.1637685864608
 20
111.5392381573656
 30
0.0
 10
358.0944100333717
 20
110.8571546079471
 30
0.0
 10
356.7542131183199
 20
110.0098790061215
 30
0.0
 10
355.6694370815137
 20
109.3354820008818
 30
0.0
 10
355.1308002873199
 20
109.0006156058001
 30
0.0
  0
SPLINE
  5
2B4
330
1F
100
AcDbEntity
  8
0
  6
Continuous
 62
     7
370
    15
100
AcDbSpline
210
0.0
220
0.0
230
1.0
 70
     8
 71
     3
 72
    40
 73
    36
 74
     0
 42
0.00000001
 43
0.00000001
 12
1.0
 22
0.0
 32
0.0
 13
1.0
 23
0.0
 33
0.0
 40
0.0
 40
0.0
 40
0.0
 40
0.0
 40
0.0077881213502354
 40
0.011686244239343
 40
0.0155868609333497
 40
0.0218326414430786
 40
0.0265205842676588
 40
0.0312113140385898
 40
0.0351221991512614
 40
0.0390346790140474
 40
0.0429485952022597
 40
0.0468637873047982
 40
0.0546972662155683
 40
0.0586153063075978
 40
0.0625339642333031
 40
0.0750754590063253
 40
0.0826004286329105
 40
0.0882432361186456
 40
0.0938846607032567
 40
0.097801247923597
 40
0.101716751644736
 40
0.1095437476185504
 40
0.1251766544068135
 40
0.1875809507659406
 40
0.2502289975089567
 40
0.3749775706639354
 40
0.499715975183956
 40
0.5712429669418503
 40
0.6246904751396702
 40
0.6872594477173333
 40
0.749749056783901
 40
0.8120849858315782
 40
0.8746463011136685
 40
0.9374030406596023
 40
1.0
 40
1.0
 40
1.0
 40
1.0
 10
361.9200285107288
 20
112.8866483853566
 30
0.0
 10
361.9200218684886
 20
112.8880349658352
 30
0.0
 10
361.9200119016638
 20
112.890115559781
 30
0.0
 10
361.9199500973003
 20
112.8928898120907
 30
0.0
 10
361.9198749383534
 20
112.8953888785789
 30
0.0
 10
361.9197655923787
 20
112.8980272913584
 30
0.0
 10
361.919617517165
 20
112.9008042782097
 30
0.0
 10
361.9194674960774
 20
112.9031645897542
 30
0.0
 10
361.9193055819719
 20
112.9053854566078
 30
0.0
 10
361.9191361615823
 20
112.9074668309671
 30
0.0
 10
361.9189491756401
 20
112.909547163629
 30
0.0
 10
361.9186764729137
 20
112.9123195515782
 30
0.0
 10
361.9183688710519
 20
112.9150884294396
 30
0.0
 10
361.9180265866082
 20
112.9178528648489
 30
0.0
 10
361.9175515264423
 20
112.9214432211234
 30
0.0
 10
361.9169185245637
 20
112.9256572011993
 30
0.0
 10
361.916144314769
 20
112.9301549042719
 30
0.0
 10
361.9155320874488
 20
112.9334355234657
 30
0.0
 10
361.9150056606783
 20
112.9360794279546
 30
0.0
 10
361.9145153343392
 20
112.9384170147503
 30
0.0
 10
361.9139229284172
 20
112.9411279570575
 30
0.0
 10
361.9128280029225
 20
112.9458514729001
 30
0.0
 10
361.9090272695584
 20
112.9605594875047
 30
0.0
 10
361.9007342667418
 20
112.9840048301843
 30
0.0
 10
361.88081794817
 20
113.0228709668672
 30
0.0
 10
361.8468362689987
 20
113.065081874596
 30
0.0
 10
361.8027708011074
 20
113.0967593530943
 30
0.0
 10
361.7650529034178
 20
113.1133635859734
 30
0.0
 10
361.7355655477088
 20
113.1218610713768
 30
0.0
 10
361.7068160155828
 20
113.1263739536077
 30
0.0
 10
361.6763355689709
 20
113.1271168791462
 30
0.0
 10
361.6459891162641
 20
113.1237411500072
 30
0.0
 10
361.6162339738373
 20
113.1162860086275
 30
0.0
 10
361.5873361662988
 20
113.105132992979
 30
0.0
 10
361.5694485714862
 20
113.0944146652424
 30
0.0
 10
361.5605161741566
 20
113.0890623323517
 30
0.0
  0
LINE
  5
2B5
330
1F
100
AcDbEntity
  8
0
  6
Continuous
 62
     7
370
    15
100
AcDbLine
 10
361.9200273847
 20
108.210713184
 30
0.0
 11
361.9200273847
 21
112.8866491379
 31
0.0
  0
SPLINE
  5
2B6
330
1F
100
AcDbEntity
  8
0
  6
Continuous
 62
     7
370
    15
100
AcDbSpline
210
0.0
220
0.0
230
1.0
 70
     8
 71
     3
 72
    17
 73
    13
 74
     0
 42
0.00000001
 43
0.00000001
 12
1.0
 22
0.0
 32
0.0
 13
1.0
 23
0.0
 33
0.0
 40
0.0
 40
0.0
 40
0.0
 40
0.0
 40
0.1253292819827427
 40
0.2501900092005667
 40
0.3126685577458751
 40
0.3749528748183385
 40
0.4999899402998063
 40
0.5817742126744734
 40
0.6429595014113998
 40
0.7498151516487161
 40
0.8750742076898578
 40
1.0
 40
1.0
 40
1.0
 40
1.0
 10
361.8119345185741
 20
108.0083001330984
 30
0.0
 10
361.8197946912211
 20
108.0138551217004
 30
0.0
 10
361.8354856505545
 20
108.0249443310811
 30
0.0
 10
361.8529838573183
 20
108.0419748370569
 30
0.0
 10
361.8658286172852
 20
108.0567421277212
 30
0.0
 10
361.8777799070846
 20
108.0724164580066
 30
0.0
 10
361.8891454895615
 20
108.0906259791259
 30
0.0
 10
361.8986383718961
 20
108.1099306955039
 30
0.0
 10
361.9062492504477
 20
108.1285900060816
 30
0.0
 10
361.9132796393995
 20
108.1513409731651
 30
0.0
 10
361.9188933371139
 20
108.1800189223792
 30
0.0
 10
361.9196504557022
 20
108.2004914511358
 30
0.0
 10
361.9200285107288
 20
108.2107140800934
 30
0.0
  0
LINE
  5
2B7
330
1F
100
AcDbEntity
  8
0
  6
Continuous
 62
     7
370
    15
100
AcDbLine
 10
343.2506773119
 20
115.7961101742
 30
0.0
 11
345.0184430426
 21
115.7961101742
 31
0.0
  0
SPLINE
  5
2B8
330
1F
100
AcDbEntity
  8
0
  6
Continuous
 62
     7
370
    15
100
AcDbSpline
210
0.0
220
0.0
230
1.0
 70
     8
 71
     3
 72
    11
 73
     7
 74
     0
 42
0.00000001
 43
0.00000001
 12
1.0
 22
0.0
 32
0.0
 13
1.0
 23
0.0
 33
0.0
 40
0.0
 40
0.0
 40
0.0
 40
0.0
 40
0.2474762470424426
 40
0.4966348299330003
 40
0.7474759991093511
 40
1.0
 40
1.0
 40
1.0
 40
1.0
 10
358.7539202032861
 20
80.50108438205189
 30
0.0
 10
359.004752661913
 20
80.60529961335413
 30
0.0
 10
359.5081227304373
 20
80.8144385278672
 30
0.0
 10
360.2622839029409
 20
81.13027854644561
 30
0.0
 10
361.0191695461394
 20
81.44895676053221
 30
0.0
 10
361.5230231036982
 20
81.66281761111118
 30
0.0
 10
361.7757921147142
 20
81.7701055222213
 30
0.0
  0
SPLINE
  5
2B9
330
1F
100
AcDbEntity
  8
0
  6
Continuous
 62
     7
370
    15
100
AcDbSpline
210
0.0
220
0.0
230
1.0
 70
     8
 71
     3
 72
    22
 73
    18
 74
     0
 42
0.00000001
 43
0.00000001
 12
1.0
 22
0.0
 32
0.0
 13
1.0
 23
0.0
 33
0.0
 40
0.0
 40
0.0
 40
0.0
 40
0.0
 40
0.0155520851384165
 40
0.0311270433554302
 40
0.0623329566598027
 40
0.1248793871112215
 40
0.196375668892419
 40
0.2498399714686795
 40
0.3210551715807844
 40
0.3746722311416653
 40
0.4104563627347665
 40
0.4372890081146235
 40
0.4997700659542693
 40
0.6244830128103637
 40
0.7495507511454943
 40
0.8746105829060523
 40
1.0
 40
1.0
 40
1.0
 40
1.0
 10
358.6058641089676
 20
80.27935329424918
 30
0.0
 10
358.6058726119485
 20
80.28086097393083
 30
0.0
 10
358.6058896304162
 20
80.28387855069943
 30
0.0
 10
358.6060708820907
 20
80.28991866220036
 30
0.0
 10
358.6066781169292
 20
80.30049920153913
 30
0.0
 10
358.6085065524699
 20
80.31641451467841
 30
0.0
 10
358.6120024622031
 20
80.33422086275516
 30
0.0
 10
358.6170241024362
 20
80.3524593401078
 30
0.0
 10
358.6228345511103
 20
80.3685876641696
 30
0.0
 10
358.6291051688816
 20
80.38261274105365
 30
0.0
 10
358.6341499354216
 20
80.39247296302324
 30
0.0
 10
358.6399496725458
 20
80.40285061415811
 30
0.0
 10
358.6507540210738
 20
80.42000929372409
 30
0.0
 10
358.6691353771326
 20
80.44299287126813
 30
0.0
 10
358.6946435343149
 20
80.46675291167104
 30
0.0
 10
358.7229485042087
 20
80.48671986702644
 30
0.0
 10
358.7435872502251
 20
80.49629201147107
 30
0.0
 10
358.7539202032859
 20
80.50108438205211
 30
0.0
  0
LINE
  5
2BA
330
1F
100
AcDbEntity
  8
0
  6
Continuous
 62
     7
370
    15
100
AcDbLine
 10
358.6058638489
 20
73.1277135672
 30
0.0
 11
358.6058638489
 21
80.2793535875
 31
0.0
  0
SPLINE
  5
2BB
330
1F
100
AcDbEntity
  8
0
  6
Continuous
 62
     7
370
    15
100
AcDbSpline
210
0.0
220
0.0
230
1.0
 70
     8
 71
     3
 72
    20
 73
    16
 74
     0
 42
0.00000001
 43
0.00000001
 12
1.0
 22
0.0
 32
0.0
 13
1.0
 23
0.0
 33
0.0
 40
0.0
 40
0.0
 40
0.0
 40
0.0
 40
0.1248466390527492
 40
0.2499018537218946
 40
0.3744340808409843
 40
0.4994690648009617
 40
0.5618928201037214
 40
0.5930085189054161
 40
0.6241016880764633
 40
0.6954634403904659
 40
0.7491355012712554
 40
0.8308162168380469
 40
0.8919060215697294
 40
0.9536785982841942
 40
1.0
 40
1.0
 40
1.0
 40
1.0
 10
358.7539202032861
 20
72.9059825356096
 30
0.0
 10
358.743635202162
 20
72.91075998224761
 30
0.0
 10
358.7230480172291
 20
72.920322856987
 30
0.0
 10
358.6948023083841
 20
72.94018786737502
 30
0.0
 10
358.6692807882116
 20
72.96390292565913
 30
0.0
 10
358.6509363530265
 20
72.98688135704124
 30
0.0
 10
358.6398444763358
 20
73.00435901575212
 30
0.0
 10
358.6340688746017
 20
73.01470099151572
 30
0.0
 10
358.6282908146993
 20
73.02604092228209
 30
0.0
 10
358.6223419803187
 20
73.03976429147595
 30
0.0
 10
358.6158101782985
 20
73.05852586706526
 30
0.0
 10
358.6110077219385
 20
73.0768880641297
 30
0.0
 10
358.6077019067677
 20
73.09640687831303
 30
0.0
 10
358.6061136885838
 20
73.11274306958258
 30
0.0
 10
358.6059389776605
 20
73.1232227686982
 30
0.0
 10
358.6058641089676
 20
73.12771362341228
 30
0.0
  0
SPLINE
  5
2BC
330
1F
100
AcDbEntity
  8
0
  6
Continuous
 62
     7
370
    15
100
AcDbSpline
210
0.0
220
0.0
230
1.0
 70
     8
 71
     3
 72
    11
 73
     7
 74
     0
 42
0.00000001
 43
0.00000001
 12
1.0
 22
0.0
 32
0.0
 13
1.0
 23
0.0
 33
0.0
 40
0.0
 40
0.0
 40
0.0
 40
0.0
 40
0.2525240008907028
 40
0.5033651700670676
 40
0.7525237529576062
 40
1.0
 40
1.0
 40
1.0
 40
1.0
 10
361.7757921147143
 20
71.63696139544018
 30
0.0
 10
361.5230231036982
 20
71.74424930655033
 30
0.0
 10
361.0191695461394
 20
71.95811015712933
 30
0.0
 10
360.2622839029408
 20
72.27678837121599
 30
0.0
 10
359.5081227304372
 20
72.59262838979433
 30
0.0
 10
359.004752661913
 20
72.80176730430735
 30
0.0
 10
358.7539202032861
 20
72.9059825356096
 30
0.0
  0
SPLINE
  5
2BD
330
1F
100
AcDbEntity
  8
0
  6
Continuous
 62
     7
370
    15
100
AcDbSpline
210
0.0
220
0.0
230
1.0
 70
     8
 71
     3
 72
    22
 73
    18
 74
     0
 42
0.00000001
 43
0.00000001
 12
1.0
 22
0.0
 32
0.0
 13
1.0
 23
0.0
 33
0.0
 40
0.0
 40
0.0
 40
0.0
 40
0.0
 40
0.0155522875821646
 40
0.031127136121577
 40
0.0623321824091877
 40
0.1248766438992924
 40
0.1963765436355966
 40
0.2498534631938478
 40
0.3210498101313694
 40
0.3746543597241344
 40
0.4372579802885334
 40
0.4730021030696832
 40
0.4997665102919838
 40
0.6244400923825646
 40
0.7495137647452034
 40
0.874554176131579
 40
1.0
 40
1.0
 40
1.0
 40
1.0
 10
361.9200285107288
 20
71.41523030763744
 30
0.0
 10
361.9200203198973
 20
71.41673097452133
 30
0.0
 10
361.9200039263524
 20
71.41973448523453
 30
0.0
 10
361.9198292892362
 20
71.42574644463376
 30
0.0
 10
361.9192440656647
 20
71.43627798407168
 30
0.0
 10
361.9174810249617
 20
71.4521227422788
 30
0.0
 10
361.9141071727053
 20
71.46985969289263
 30
0.0
 10
361.9092588494066
 20
71.48803799085904
 30
0.0
 10
361.903645244553
 20
71.50412632641319
 30
0.0
 10
361.8965644105721
 20
71.52046500740114
 30
0.0
 10
361.8899793073049
 20
71.53323843306877
 30
0.0
 10
361.8840016731767
 20
71.54337528151486
 30
0.0
 10
361.8745451967636
 20
71.55815580450096
 30
0.0
 10
361.8587167977361
 20
71.5785624662996
 30
0.0
 10
361.8338416292731
 20
71.60241569671697
 30
0.0
 10
361.806166912043
 20
71.62250836680934
 30
0.0
 10
361.7859279660823
 20
71.63213852375377
 30
0.0
 10
361.7757921147143
 20
71.6369613954403
 30
0.0
  0
LINE
  5
2BE
330
1F
100
AcDbEntity
  8
0
  6
Continuous
 62
     7
370
    15
100
AcDbLine
 10
361.9200273847
 20
66.7392951907
 30
0.0
 11
361.9200273847
 21
71.4152311446
 31
0.0
  0
SPLINE
  5
2BF
330
1F
100
AcDbEntity
  8
0
  6
Continuous
 62
     7
370
    15
100
AcDbSpline
210
0.0
220
0.0
230
1.0
 70
     8
 71
     3
 72
    31
 73
    27
 74
     0
 42
0.00000001
 43
0.00000001
 12
1.0
 22
0.0
 32
0.0
 13
1.0
 23
0.0
 33
0.0
 40
0.0
 40
0.0
 40
0.0
 40
0.0
 40
0.0622605176140012
 40
0.1250256861671116
 40
0.2496664998513233
 40
0.3122826578494915
 40
0.374696337651187
 40
0.4370852886265461
 40
0.4996807631571989
 40
0.624210666514183
 40
0.6868122189131036
 40
0.7491467769178921
 40
0.8116417391222572
 40
0.8429889886053055
 40
0.8586543464627828
 40
0.8743015050856849
 40
0.8906230721468064
 40
0.900399122160793
 40
0.9150765221686117
 40
0.9274204469391737
 40
0.9459534808127773
 40
0.9583146550766836
 40
0.9768525192158051
 40
0.9814851763846919
 40
0.9861165283708607
 40
1.0
 40
1.0
 40
1.0
 40
1.0
 10
361.5967232642937
 20
66.51756491457158
 30
0.0
 10
361.6054916935513
 20
66.51420996462124
 30
0.0
 10
361.6230996243322
 20
66.50747287126462
 30
0.0
 10
361.6596945645637
 20
66.49961477184809
 30
0.0
 10
361.6972523812873
 20
66.49822592101272
 30
0.0
 10
361.7341462669219
 20
66.5038167091299
 30
0.0
 10
361.7612609475381
 20
66.5113327034057
 30
0.0
 10
361.787389887749
 20
66.52226865877996
 30
0.0
 10
361.8204233473269
 20
66.54104532044336
 30
0.0
 10
361.8502289319725
 20
66.56621055645408
 30
0.0
 10
361.8750162080293
 20
66.59665892183787
 30
0.0
 10
361.8909176538088
 20
66.62192101877308
 30
0.0
 10
361.9014968151779
 20
66.6447274109825
 30
0.0
 10
361.9074488237943
 20
66.66139224204642
 30
0.0
 10
361.9104195474445
 20
66.67109681604633
 30
0.0
 10
361.9124534034164
 20
66.67855257292753
 30
0.0
 10
361.9140303031411
 20
66.6851502336205
 30
0.0
 10
361.9154026428937
 20
66.69163906586911
 30
0.0
 10
361.9164958654142
 20
66.69753052470249
 30
0.0
 10
361.9176513056398
 20
66.70486417632775
 30
0.0
 10
361.9185351928405
 20
66.71186289207543
 30
0.0
 10
361.9193009082379
 20
66.71989501572736
 30
0.0
 10
361.9196757776002
 20
66.72568691714403
 30
0.0
 10
361.9198636806374
 20
66.73022399280252
 30
0.0
 10
361.9199888688145
 20
66.73400308066158
 30
0.0
 10
361.9200115231872
 20
66.73702785437824
 30
0.0
 10
361.920028510729
 20
66.73929600237427
 30
0.0
  0
SPLINE
  5
2C0
330
1F
100
AcDbEntity
  8
0
  6
Continuous
 62
     7
370
    15
100
AcDbSpline
210
0.0
220
0.0
230
1.0
 70
     8
 71
     3
 72
    16
 73
    12
 74
     0
 42
0.00000001
 43
0.00000001
 12
1.0
 22
0.0
 32
0.0
 13
1.0
 23
0.0
 33
0.0
 40
0.0
 40
0.0
 40
0.0
 40
0.0
 40
0.0817644221378298
 40
0.1641053463437872
 40
0.2470229492989049
 40
0.3305174040217344
 40
0.414588879967763
 40
0.4992375431255247
 40
0.6635129108954905
 40
0.8304333775905185
 40
1.0
 40
1.0
 40
1.0
 40
1.0
 10
350.3596394977664
 20
71.07602420409273
 30
0.0
 10
350.6727568042531
 20
70.95441801687407
 30
0.0
 10
351.3011991350828
 20
70.7103482252791
 30
0.0
 10
352.2429341650725
 20
70.34108956180138
 30
0.0
 10
353.1880297747398
 20
69.96789681260978
 30
0.0
 10
354.1360502884083
 20
69.59063381804759
 30
0.0
 10
355.0869281287087
 20
69.20933446874692
 30
0.0
 10
356.337374054011
 20
68.7040526252382
 30
0.0
 10
357.8892828026327
 20
68.06960378384204
 30
0.0
 10
359.7437579352624
 20
67.30080827367091
 30
0.0
 10
360.9758384350022
 20
66.78001122788838
 30
0.0
 10
361.5967232642938
 20
66.51756491457158
 30
0.0
  0
SPLINE
  5
2C1
330
1F
100
AcDbEntity
  8
0
  6
Continuous
 62
     7
370
    15
100
AcDbSpline
210
0.0
220
0.0
230
1.0
 70
     8
 71
     3
 72
    41
 73
    37
 74
     0
 42
0.00000001
 43
0.00000001
 12
1.0
 22
0.0
 32
0.0
 13
1.0
 23
0.0
 33
0.0
 40
0.0
 40
0.0
 40
0.0
 40
0.0
 40
0.0077909115776774
 40
0.0116903899284311
 40
0.015592348391736
 40
0.0312214094834075
 40
0.0437458386924028
 40
0.0512673438263832
 40
0.056910959331805
 40
0.0625561458109331
 40
0.0664770954963574
 40
0.0703984026611705
 40
0.0743199010178485
 40
0.0782414232048713
 40
0.0821628009489713
 40
0.0841233878559925
 40
0.0860838752165254
 40
0.0880442418123705
 40
0.0900044663988953
 40
0.0919645277096002
 40
0.0939244044614407
 40
0.1118297958968525
 40
0.1252381935889596
 40
0.1408483080903367
 40
0.1564411697602019
 40
0.1877212701955983
 40
0.2504166065562475
 40
0.3752965120949718
 40
0.5001874178298066
 40
0.5628545144254524
 40
0.6253309534061997
 40
0.6878120885949061
 40
0.7504226377991481
 40
0.8750654003831624
 40
0.937775362083895
 40
1.0
 40
1.0
 40
1.0
 40
1.0
 10
350.004438943784
 20
70.85429311629002
 30
0.0
 10
350.0044455244657
 20
70.85560602359905
 30
0.0
 10
350.0044553988861
 20
70.85757606243592
 30
0.0
 10
350.0045165787245
 20
70.86020289993047
 30
0.0
 10
350.0046407234848
 20
70.86414913966532
 30
0.0
 10
350.0049325950462
 20
70.8695437525959
 30
0.0
 10
350.0054469730671
 20
70.87553203903349
 30
0.0
 10
350.0059137091177
 20
70.87983351172909
 30
0.0
 10
350.006301399333
 20
70.8829771776663
 30
0.0
 10
350.0066465901038
 20
70.88551457887294
 30
0.0
 10
350.0069764059272
 20
70.88776091512432
 30
0.0
 10
350.0072809791954
 20
70.88971735552384
 30
0.0
 10
350.0076024287604
 20
70.89167091542372
 30
0.0
 10
350.0079406976391
 20
70.89362135453105
 30
0.0
 10
350.0082365630674
 20
70.8952439529503
 30
0.0
 10
350.0084816117619
 20
70.89654024753663
 30
0.0
 10
350.0086695646975
 20
70.89751152256086
 30
0.0
 10
350.0088616798774
 20
70.89848183728593
 30
0.0
 10
350.0090579501073
 20
70.89945116126229
 30
0.0
 10
350.0092583687015
 20
70.90041946690485
 30
0.0
 10
350.0100176962522
 20
70.90400992743892
 30
0.0
 10
350.0112946602192
 20
70.90945645817087
 30
0.0
 10
350.0133586379873
 20
70.917062280746
 30
0.0
 10
350.0155522923588
 20
70.92422045704352
 30
0.0
 10
350.0189741086662
 20
70.93412032335104
 30
0.0
 10
350.0258690352001
 20
70.95112281183957
 30
0.0
 10
350.0429447808081
 20
70.98347818736347
 30
0.0
 10
350.0759858093492
 20
71.02393194443319
 30
0.0
 10
350.1173401453912
 20
71.05460444987706
 30
0.0
 10
350.1536285784598
 20
71.07273858849148
 30
0.0
 10
350.1821170953742
 20
71.08315893225223
 30
0.0
 10
350.2115014593305
 20
71.09025005104755
 30
0.0
 10
350.2513251450897
 20
71.09540032119926
 30
0.0
 10
350.2917085746918
 20
71.09380392462236
 30
0.0
 10
350.3311344724894
 20
71.08599900682252
 30
0.0
 10
350.350162461527
 20
71.07934051642829
 30
0.0
 10
350.3596394977664
 20
71.07602420409273
 30
0.0
  0
LINE
  5
2C2
330
1F
100
AcDbEntity
  8
0
  6
Continuous
 62
     7
370
    15
100
AcDbLine
 10
350.0044404959
 20
68.0361097218
 30
0.0
 11
350.0044404959
 21
70.8542936952
 31
0.0
  0
SPLINE
  5
2C3
330
1F
100
AcDbEntity
  8
0
  6
Continuous
 62
     7
370
    15
100
AcDbSpline
210
0.0
220
0.0
230
1.0
 70
     8
 71
     3
 72
    26
 73
    22
 74
     0
 42
0.00000001
 43
0.00000001
 12
1.0
 22
0.0
 32
0.0
 13
1.0
 23
0.0
 33
0.0
 40
0.0
 40
0.0
 40
0.0
 40
0.0
 40
0.1249375112674158
 40
0.2498538541306474
 40
0.3746698359440693
 40
0.4994292369911265
 40
0.6242333403219653
 40
0.7488767914289052
 40
0.7801293217551524
 40
0.7957958025738442
 40
0.811478990536571
 40
0.836588640932124
 40
0.851656050442879
 40
0.874242574617893
 40
0.8906129746550964
 40
0.9151208848463553
 40
0.9273492665027804
 40
0.94573287743055
 40
0.9674397812722958
 40
0.9804668420477086
 40
1.0
 40
1.0
 40
1.0
 40
1.0
 10
349.7469157342043
 20
67.79611061933457
 30
0.0
 10
349.7628379707878
 20
67.79691678763122
 30
0.0
 10
349.7946797462196
 20
67.79852898763389
 30
0.0
 10
349.8411466792492
 20
67.81128452660174
 30
0.0
 10
349.8848590388915
 20
67.83172004879287
 30
0.0
 10
349.9244618861474
 20
67.86007429049847
 30
0.0
 10
349.9580237933259
 20
67.89595692412487
 30
0.0
 10
349.9775959632904
 20
67.92770336880432
 30
0.0
 10
349.9867450704769
 20
67.94851413536104
 30
0.0
 10
349.9897785943509
 20
67.95624558833129
 30
0.0
 10
349.9923276712098
 20
67.96329564722622
 30
0.0
 10
349.9946075651191
 20
67.97036437214298
 30
0.0
 10
349.9968950415392
 20
67.97839570463942
 30
0.0
 10
349.9986402310436
 20
67.98537643891605
 30
0.0
 10
350.0004114047938
 20
67.9936465050636
 30
0.0
 10
350.0016441507149
 20
68.0006226588808
 30
0.0
 10
350.0026834382271
 20
68.00790291881923
 30
0.0
 10
350.0034761539304
 20
68.01484182087647
 30
0.0
 10
350.0040219021664
 20
68.02191414489955
 30
0.0
 10
350.0043703381409
 20
68.02915323960609
 30
0.0
 10
350.0044132191152
 20
68.03350185012376
 30
0.0
 10
350.004438943784
 20
68.0361106193346
 30
0.0
  0
LINE
  5
2C4
330
1F
100
AcDbEntity
  8
0
  6
Continuous
 62
     7
370
    15
100
AcDbLine
 10
345.0184430426
 20
67.796109757
 30
0.0
 11
349.7469149029
 21
67.796109757
 31
0.0
  0
SPLINE
  5
2C5
330
1F
100
AcDbEntity
  8
0
  6
Continuous
 62
     7
370
    15
100
AcDbSpline
210
0.0
220
0.0
230
1.0
 70
     8
 71
     3
 72
    27
 73
    23
 74
     0
 42
0.00000001
 43
0.00000001
 12
1.0
 22
0.0
 32
0.0
 13
1.0
 23
0.0
 33
0.0
 40
0.0
 40
0.0
 40
0.0
 40
0.0
 40
0.0088986642598488
 40
0.0133523345595268
 40
0.0178086985149305
 40
0.0356575523202551
 40
0.0499604154731622
 40
0.0714414957108385
 40
0.0878211941940454
 40
0.1123906136929622
 40
0.1430638936348312
 40
0.164484619382491
 40
0.1773078714206664
 40
0.1965597631748492
 40
0.2233651666922409
 40
0.2502241759380017
 40
0.3752115492990548
 40
0.5003595164810265
 40
0.625244324821351
 40
0.7503227269953976
 40
0.8751319615200546
 40
0.9999999999999999
 40
0.9999999999999999
 40
0.9999999999999999
 40
0.9999999999999999
 10
344.7504371801151
 20
68.0361106193346
 30
0.0
 10
344.7504429739288
 20
68.03490516491952
 30
0.0
 10
344.7504516674738
 20
68.03309639562829
 30
0.0
 10
344.7505055371843
 20
68.03068456182551
 30
0.0
 10
344.7506148444718
 20
68.02706149846735
 30
0.0
 10
344.7508718357523
 20
68.02210834812973
 30
0.0
 10
344.7514680867167
 20
68.01486861792229
 30
0.0
 10
344.7522837251266
 20
68.00785066116092
 30
0.0
 10
344.7535528192277
 20
67.999495061813
 30
0.0
 10
344.7553685845298
 20
67.98997290799328
 30
0.0
 10
344.7578251612417
 20
67.97989720608763
 30
0.0
 10
344.7603106808127
 20
67.97148518754626
 30
0.0
 10
344.7625780926402
 20
67.96462796199344
 30
0.0
 10
344.7652993544791
 20
67.95716343849143
 30
0.0
 10
344.7690539919607
 20
67.94807663341626
 30
0.0
 10
344.7792908177034
 20
67.92631224521342
 30
0.0
 10
344.7995981237177
 20
67.89481099827529
 30
0.0
 10
344.8349884981317
 20
67.85913962664317
 30
0.0
 10
344.8762334007195
 20
67.83101295572403
 30
0.0
 10
344.9215166746019
 20
67.81097613694492
 30
0.0
 10
344.9693827435675
 20
67.79846265325054
 30
0.0
 10
345.0020872734161
 20
67.7968947537304
 30
0.0
 10
345.0184433896235
 20
67.79611061933457
 30
0.0
  0
LINE
  5
2C6
330
1F
100
AcDbEntity
  8
0
  6
Continuous
 62
     7
370
    15
100
AcDbLine
 10
344.7504363453
 20
68.0361097218
 30
0.0
 11
344.7504363453
 21
80.0450002314
 31
0.0
  0
SPLINE
  5
2C7
330
1F
100
AcDbEntity
  8
0
  6
Continuous
 62
     7
370
    15
100
AcDbSpline
210
0.0
220
0.0
230
1.0
 70
     8
 71
     3
 72
    20
 73
    16
 74
     0
 42
0.00000001
 43
0.00000001
 12
1.0
 22
0.0
 32
0.0
 13
1.0
 23
0.0
 33
0.0
 40
0.0
 40
0.0
 40
0.0
 40
0.0
 40
0.1249788024373204
 40
0.2501828332585156
 40
0.4991663214718849
 40
0.5616727532136218
 40
0.5928443025394075
 40
0.6239379179519762
 40
0.6951621252714584
 40
0.7488574676803563
 40
0.7816251795609848
 40
0.830731885080342
 40
0.891899263731169
 40
0.9535183949157569
 40
1.0
 40
1.0
 40
1.0
 40
1.0
 10
344.9159496507773
 20
80.26673153364297
 30
0.0
 10
344.9047858083857
 20
80.26210727730316
 30
0.0
 10
344.882438004877
 20
80.25285043110004
 30
0.0
 10
344.841157958513
 20
80.22728267825977
 30
0.0
 10
344.8095616256007
 20
80.1976515219674
 30
0.0
 10
344.7898034368395
 20
80.17036704469906
 30
0.0
 10
344.7831860344395
 20
80.16001692161055
 30
0.0
 10
344.7765452729586
 20
80.14865769264976
 30
0.0
 10
344.7696801262244
 20
80.13483626431646
 30
0.0
 10
344.7639033424025
 20
80.12032708450577
 30
0.0
 10
344.7596472124992
 20
80.1075831449499
 30
0.0
 10
344.7558785762736
 20
80.09389309170676
 30
0.0
 10
344.7526018122095
 20
80.07712298913627
 30
0.0
 10
344.7507311685022
 20
80.060372583384
 30
0.0
 10
344.7505255799413
 20
80.0496227178304
 30
0.0
 10
344.7504371801151
 20
80.04500044584026
 30
0.0
  0
SPLINE
  5
2C8
330
1F
100
AcDbEntity
  8
0
  6
Continuous
 62
     7
370
    15
100
AcDbSpline
210
0.0
220
0.0
230
1.0
 70
     8
 71
     3
 72
    19
 73
    15
 74
     0
 42
0.00000001
 43
0.00000001
 12
1.0
 22
0.0
 32
0.0
 13
1.0
 23
0.0
 33
0.0
 40
0.0
 40
0.0
 40
0.0
 40
0.0
 40
0.0508665406097119
 40
0.1013760161055711
 40
0.1515284848924873
 40
0.2013240066324329
 40
0.2507626422805291
 40
0.3769763785398034
 40
0.5011791328985725
 40
0.6270076606964012
 40
0.7510049381514808
 40
0.8347471869793519
 40
0.917745383588796
 40
1.0
 40
1.0
 40
1.0
 40
1.0
 10
361.5967232642937
 20
86.88950200308987
 30
0.0
 10
361.3235530344335
 20
86.77374609251679
 30
0.0
 10
360.779130133054
 20
86.54304683689783
 30
0.0
 10
359.9612116261366
 20
86.19941935444167
 30
0.0
 10
359.1461314940593
 20
85.85911358314246
 30
0.0
 10
358.3336980710636
 20
85.5222135860708
 30
0.0
 10
357.1030695942117
 20
85.01525372495215
 30
0.0
 10
355.4556306762095
 20
84.34452548392902
 30
0.0
 10
353.3702613063717
 20
83.50961973400275
 30
0.0
 10
351.2797185004606
 20
82.68662008967615
 30
0.0
 10
349.4004726833038
 20
81.9591215956959
 30
0.0
 10
347.7520688250716
 20
81.33006107306731
 30
0.0
 10
346.333900172367
 20
80.79454574660774
 30
0.0
 10
345.3871798538915
 20
80.44214103841404
 30
0.0
 10
344.9159496507773
 20
80.26673153364297
 30
0.0
  0
SPLINE
  5
2C9
330
1F
100
AcDbEntity
  8
0
  6
Continuous
 62
     7
370
    15
100
AcDbSpline
210
0.0
220
0.0
230
1.0
 70
     8
 71
     3
 72
    31
 73
    27
 74
     0
 42
0.00000001
 43
0.00000001
 12
1.0
 22
0.0
 32
0.0
 13
1.0
 23
0.0
 33
0.0
 40
0.0
 40
0.0
 40
0.0
 40
0.0
 40
0.0077888198876474
 40
0.0116869802036604
 40
0.0155874609839364
 40
0.0312094447351653
 40
0.0437272204548441
 40
0.0625262907357968
 40
0.0768601382346414
 40
0.0854617302997017
 40
0.098361448957572
 40
0.1091058105305885
 40
0.1252056762632215
 40
0.1408313831654305
 40
0.1564215907895413
 40
0.1876380216855807
 40
0.2502830382061221
 40
0.3750655843481145
 40
0.437733491655578
 40
0.5001579734696581
 40
0.5627521539298712
 40
0.625347759017523
 40
0.7501131969869126
 40
0.8748517544054883
 40
0.9375034102827764
 40
1.0
 40
1.0
 40
1.0
 40
1.0
 10
361.9200285107288
 20
86.66777091528715
 30
0.0
 10
361.920022918213
 20
86.6690430627785
 30
0.0
 10
361.9200145267465
 20
86.6709518965636
 30
0.0
 10
361.9199624913758
 20
86.67349718285999
 30
0.0
 10
361.9198568723923
 20
86.6773206581733
 30
0.0
 10
361.9196084157275
 20
86.68254785434102
 30
0.0
 10
361.9190312405618
 20
86.69018876130568
 30
0.0
 10
361.9182407616089
 20
86.69759635806066
 30
0.0
 10
361.9172998325159
 20
86.70433505964601
 30
0.0
 10
361.9163632332459
 20
86.71009714183404
 30
0.0
 10
361.9154122949569
 20
86.71525996482379
 30
0.0
 10
361.9140944543178
 20
86.72158840694954
 30
0.0
 10
361.9125097593367
 20
86.72830465033064
 30
0.0
 10
361.9105125427931
 20
86.73571649602654
 30
0.0
 10
361.9075766855613
 20
86.74539232955014
 30
0.0
 10
361.9016354921138
 20
86.76205130992489
 30
0.0
 10
361.8868195918036
 20
86.7939390362644
 30
0.0
 10
361.863518162045
 20
86.82645191687853
 30
0.0
 10
361.8354649350673
 20
86.85334786963266
 30
0.0
 10
361.812318032101
 20
86.8706424314046
 30
0.0
 10
361.787466127148
 20
86.88476691362482
 30
0.0
 10
361.7526388406484
 20
86.89933246664367
 30
0.0
 10
361.7066007913564
 20
86.90915864478994
 30
0.0
 10
361.6597702096867
 20
86.90747773371167
 30
0.0
 10
361.6231452168723
 20
86.89960490335088
 30
0.0
 10
361.6055233036185
 20
86.89286685356133
 30
0.0
 10
361.5967232642937
 20
86.88950200308987
 30
0.0
  0
LINE
  5
2CA
330
1F
100
AcDbEntity
  8
0
  6
Continuous
 62
     7
370
    15
100
AcDbLine
 10
361.9200273847
 20
81.9918369414
 30
0.0
 11
361.9200273847
 21
86.6677710326
 31
0.0
  0
SPLINE
  5
2CB
330
1F
100
AcDbEntity
  8
0
  6
Continuous
 62
     7
370
    15
100
AcDbSpline
210
0.0
220
0.0
230
1.0
 70
     8
 71
     3
 72
    20
 73
    16
 74
     0
 42
0.00000001
 43
0.00000001
 12
1.0
 22
0.0
 32
0.0
 13
1.0
 23
0.0
 33
0.0
 40
0.0
 40
0.0
 40
0.0
 40
0.0
 40
0.1248373376559766
 40
0.2498800959417884
 40
0.3744221221105526
 40
0.4994634234191474
 40
0.5244618272941103
 40
0.5618890660515525
 40
0.6240953061537501
 40
0.695479482775035
 40
0.7491507758843331
 40
0.830812730785605
 40
0.8919492388703195
 40
0.9536999243024777
 40
1.0
 40
1.0
 40
1.0
 40
1.0
 10
361.7757921147143
 20
81.7701055222213
 30
0.0
 10
361.7858751893831
 20
81.77491152052409
 30
0.0
 10
361.8060579304839
 20
81.78453142543032
 30
0.0
 10
361.8336771587029
 20
81.80450955866517
 30
0.0
 10
361.8585661234417
 20
81.82832631181694
 30
0.0
 10
361.874269022137
 20
81.84860061541649
 30
0.0
 10
361.8837941526657
 20
81.8633600777105
 30
0.0
 10
361.8897867711836
 20
81.87343148600434
 30
0.0
 10
361.8972179640602
 20
81.88779382898142
 30
0.0
 10
361.9041200164473
 20
81.90422505120894
 30
0.0
 10
361.9104350006035
 20
81.92293855933208
 30
0.0
 10
361.9150723104132
 20
81.94123984211444
 30
0.0
 10
361.9182568119449
 20
81.96067961151587
 30
0.0
 10
361.9197881672758
 20
81.97694210268993
 30
0.0
 10
361.9199564157516
 20
81.98736875723344
 30
0.0
 10
361.9200285107288
 20
81.99183661002401
 30
0.0
  0
SPLINE
  5
2CC
330
1F
100
AcDbEntity
  8
0
  6
Continuous
 62
     7
370
    15
100
AcDbSpline
210
0.0
220
0.0
230
1.0
 70
     8
 71
     3
 72
    14
 73
    10
 74
     0
 42
0.00000001
 43
0.00000001
 12
1.0
 22
0.0
 32
0.0
 13
1.0
 23
0.0
 33
0.0
 40
0.0
 40
0.0
 40
0.0
 40
0.0
 40
0.25
 40
0.25
 40
0.5
 40
0.5
 40
0.75
 40
0.75
 40
1.0
 40
1.0
 40
1.0
 40
1.0
 10
349.8157967418261
 20
76.92526454663344
 30
0.0
 10
349.7714014900837
 20
76.90813493898756
 30
0.0
 10
349.7316786565966
 20
76.87904758557183
 30
0.0
 10
349.6741071980908
 20
76.80216557782367
 30
0.0
 10
349.6567427968945
 20
76.75307909319365
 30
0.0
 10
349.6566011978559
 20
76.65492775768875
 30
0.0
 10
349.6736510279132
 20
76.60572321396101
 30
0.0
 10
349.7313498857148
 20
76.52819195290469
 30
0.0
 10
349.7713538260467
 20
76.49895036952024
 30
0.0
 10
349.8157967418262
 20
76.48180237102802
 30
0.0
  0
SPLINE
  5
2CD
330
1F
100
AcDbEntity
  8
0
  6
Continuous
 62
     7
370
    15
100
AcDbSpline
210
0.0
220
0.0
230
1.0
 70
     8
 71
     3
 72
    11
 73
     7
 74
     0
 42
0.00000001
 43
0.00000001
 12
1.0
 22
0.0
 32
0.0
 13
1.0
 23
0.0
 33
0.0
 40
0.0
 40
0.0
 40
0.0
 40
0.0
 40
0.2502224471591231
 40
0.5002831262791815
 40
0.7502022336750225
 40
1.0
 40
1.0
 40
1.0
 40
1.0
 10
353.7391997630863
 20
74.9439132624852
 30
0.0
 10
353.4140881538777
 20
75.07307938825225
 30
0.0
 10
352.7640751191116
 20
75.33132813428512
 30
0.0
 10
351.784484506842
 20
75.71660493235241
 30
0.0
 10
350.8022838475687
 20
76.10031013724542
 30
0.0
 10
350.1445725419998
 20
76.35465888005713
 30
0.0
 10
349.8157967418261
 20
76.48180237102802
 30
0.0
  0
SPLINE
  5
2CE
330
1F
100
AcDbEntity
  8
0
  6
Continuous
 62
     7
370
    15
100
AcDbSpline
210
0.0
220
0.0
230
1.0
 70
     8
 71
     3
 72
    23
 73
    19
 74
     0
 42
0.00000001
 43
0.00000001
 12
1.0
 22
0.0
 32
0.0
 13
1.0
 23
0.0
 33
0.0
 40
0.0
 40
0.0
 40
0.0
 40
0.0
 40
0.0634795960524255
 40
0.0634795960524255
 40
0.0634795960524255
 40
0.2290583593855843
 40
0.2290583593855843
 40
0.2290583593855843
 40
0.4131309431659799
 40
0.4131309431659799
 40
0.4131309431659799
 40
0.6092501334209492
 40
0.6092501334209492
 40
0.6092501334209492
 40
0.8045732488779724
 40
0.8045732488779724
 40
0.8045732488779724
 40
1.0
 40
1.0
 40
1.0
 40
1.0
 10
354.0839158171248
 20
75.1656443502879
 30
0.0
 10
354.0839158171248
 20
75.15495157268491
 30
0.0
 10
354.0831698137289
 20
75.14423010654404
 30
0.0
 10
354.0816941056137
 20
75.13365322661352
 30
0.0
 10
354.0779014897025
 20
75.10647031510143
 30
0.0
 10
354.0690540330565
 20
75.07965827248492
 30
0.0
 10
354.0562889226788
 20
75.05576739817018
 30
0.0
 10
354.0421209292191
 20
75.02925092153787
 30
0.0
 10
354.0226686779922
 20
75.00539905855013
 30
0.0
 10
354.0003323969444
 20
74.98627108829788
 30
0.0
 10
353.9765283280473
 20
74.96588615847135
 30
0.0
 10
353.948671015654
 20
74.9501165458967
 30
0.0
 10
353.9196236297593
 20
74.93998841104957
 30
0.0
 10
353.8906524821925
 20
74.92988685870007
 30
0.0
 10
353.8596266907513
 20
74.92504925165088
 30
0.0
 10
353.8291343036764
 20
74.92570413609783
 30
0.0
 10
353.7986280265964
 20
74.9263593188602
 30
0.0
 10
353.7677811920736
 20
74.93253235119745
 30
0.0
 10
353.7391997630863
 20
74.94391326248518
 30
0.0
  0
LINE
  5
2CF
330
1F
100
AcDbEntity
  8
0
  6
Continuous
 62
     7
370
    15
100
AcDbLine
 10
354.0839164948
 20
75.1656448008
 30
0.0
 11
354.0839164948
 21
78.2414223538
 31
0.0
  0
SPLINE
  5
2D0
330
1F
100
AcDbEntity
  8
0
  6
Continuous
 62
     7
370
    15
100
AcDbSpline
210
0.0
220
0.0
230
1.0
 70
     8
 71
     3
 72
    23
 73
    19
 74
     0
 42
0.00000001
 43
0.00000001
 12
1.0
 22
0.0
 32
0.0
 13
1.0
 23
0.0
 33
0.0
 40
0.0
 40
0.0
 40
0.0
 40
0.0
 40
0.1879765485128114
 40
0.1879765485128114
 40
0.1879765485128114
 40
0.373422133550014
 40
0.373422133550014
 40
0.373422133550014
 40
0.5433719215628574
 40
0.5433719215628574
 40
0.5433719215628574
 40
0.699250146428267
 40
0.699250146428267
 40
0.699250146428267
 40
0.8494340021312803
 40
0.8494340021312803
 40
0.8494340021312803
 40
1.0
 40
1.0
 40
1.0
 40
1.0
 10
353.7391997630862
 20
78.46315365517626
 30
0.0
 10
353.7666906715412
 20
78.47410032934303
 30
0.0
 10
353.7962623086297
 20
78.48023177477052
 30
0.0
 10
353.8255949492851
 20
78.48126258857687
 30
0.0
 10
353.8545455926586
 20
78.48227997815466
 30
0.0
 10
353.8840141904836
 20
78.47836022548665
 30
0.0
 10
353.9117940026332
 20
78.46966768517966
 30
0.0
 10
353.9372841919029
 20
78.46169158741245
 30
0.0
 10
353.9619514437211
 20
78.44950386732481
 30
0.0
 10
353.9839505632432
 20
78.43366771824208
 30
0.0
 10
354.0041418207537
 20
78.41913296544051
 30
0.0
 10
354.0225309643211
 20
78.40118345032792
 30
0.0
 10
354.0376135809092
 20
78.38081180929676
 30
0.0
 10
354.0521376350641
 20
78.36119460190879
 30
0.0
 10
354.0639202943694
 20
78.33884475160447
 30
0.0
 10
354.0718166373953
 20
78.31532940811745
 30
0.0
 10
354.0797242294437
 20
78.2917805649931
 30
0.0
 10
354.0839158171248
 20
78.26642906796523
 30
0.0
 10
354.0839158171248
 20
78.24142256737356
 30
0.0
  0
SPLINE
  5
2D1
330
1F
100
AcDbEntity
  8
0
  6
Continuous
 62
     7
370
    15
100
AcDbSpline
210
0.0
220
0.0
230
1.0
 70
     8
 71
     3
 72
    11
 73
     7
 74
     0
 42
0.00000001
 43
0.00000001
 12
1.0
 22
0.0
 32
0.0
 13
1.0
 23
0.0
 33
0.0
 40
0.0
 40
0.0
 40
0.0
 40
0.0
 40
0.2497977663250158
 40
0.4997168737208714
 40
0.7497775528409186
 40
1.0
 40
1.0
 40
1.0
 40
1.0
 10
349.8157967418261
 20
76.92526454663341
 30
0.0
 10
350.1445725419998
 20
77.05240803760434
 30
0.0
 10
350.8022838475688
 20
77.30675678041608
 30
0.0
 10
351.7844845068421
 20
77.69046198530908
 30
0.0
 10
352.7640751191117
 20
78.07573878337638
 30
0.0
 10
353.4140881538777
 20
78.3339875294092
 30
0.0
 10
353.7391997630863
 20
78.46315365517624
 30
0.0
  0
LINE
  5
2D2
330
1F
100
AcDbEntity
  8
0
  6
Continuous
 62
     7
370
    15
100
AcDbLine
 10
343.2506773119
 20
67.796109757
 30
0.0
 11
345.0184430426
 21
67.796109757
 31
0.0
  0
LINE
  5
2D3
330
1F
100
AcDbEntity
  8
0
  6
Continuous
 62
     7
370
    15
100
AcDbLine
 10
352.3161470389
 20
75.5061232956
 30
0.0
 11
352.3161470389
 21
77.9009429277
 31
0.0
  0
LINE
  5
2D4
330
1F
100
AcDbEntity
  8
0
  6
Continuous
 62
     7
370
    15
100
AcDbLine
 10
48.9659517502
 20
-2.3586428253
 30
0.0
 11
53.9659469818
 21
-5.2453926294
 31
0.0
  0
LINE
  5
2D5
330
1F
100
AcDbEntity
  8
0
  6
Continuous
 62
     7
370
    15
100
AcDbLine
 10
48.9659517502
 20
3.4148642333
 30
0.0
 11
48.9659517502
 21
-2.3586428253
 31
0.0
  0
LINE
  5
2D6
330
1F
100
AcDbEntity
  8
0
  6
Continuous
 62
     7
370
    15
100
AcDbLine
 10
53.9659469818
 20
6.3016140373
 30
0.0
 11
48.9659517502
 21
3.4148642333
 31
0.0
  0
LINE
  5
2D7
330
1F
100
AcDbEntity
  8
0
  6
Continuous
 62
     7
370
    15
100
AcDbLine
 10
58.9659720158
 20
3.4148642333
 30
0.0
 11
53.9659469818
 21
6.3016140373
 31
0.0
  0
LINE
  5
2D8
330
1F
100
AcDbEntity
  8
0
  6
Continuous
 62
     7
370
    15
100
AcDbLine
 10
58.9659720158
 20
-2.3586428253
 30
0.0
 11
58.9659720158
 21
3.4148642333
 31
0.0
  0
LINE
  5
2D9
330
1F
100
AcDbEntity
  8
0
  6
Continuous
 62
     7
370
    15
100
AcDbLine
 10
53.9659469818
 20
-5.2453926294
 30
0.0
 11
58.9659720158
 21
-2.3586428253
 31
0.0
  0
LINE
  5
2DA
330
1F
100
AcDbEntity
  8
0
  6
Continuous
 62
     7
370
    15
100
AcDbLine
 10
87.4093234038
 20
2.4431818636
 30
0.0
 11
88.4741454815
 21
-3.2312771766
 31
0.0
  0
LINE
  5
2DB
330
1F
100
AcDbEntity
  8
0
  6
Continuous
 62
     7
370
    15
100
AcDbLine
 10
91.7911439633
 20
6.2025734694
 30
0.0
 11
87.4093234038
 21
2.4431818636
 31
0.0
  0
LINE
  5
2DC
330
1F
100
AcDbEntity
  8
0
  6
Continuous
 62
     7
370
    15
100
AcDbLine
 10
97.2377716994
 20
4.2874985845
 30
0.0
 11
91.7911439633
 21
6.2025734694
 31
0.0
  0
LINE
  5
2DD
330
1F
100
AcDbEntity
  8
0
  6
Continuous
 62
     7
370
    15
100
AcDbLine
 10
98.3025937771
 20
-1.3869604556
 30
0.0
 11
97.2377716994
 21
4.2874985845
 31
0.0
  0
LINE
  5
2DE
330
1F
100
AcDbEntity
  8
0
  6
Continuous
 62
     7
370
    15
100
AcDbLine
 10
93.9207732176
 20
-5.1463520615
 30
0.0
 11
98.3025937771
 21
-1.3869604556
 31
0.0
  0
LINE
  5
2DF
330
1F
100
AcDbEntity
  8
0
  6
Continuous
 62
     7
370
    15
100
AcDbLine
 10
88.4741454815
 20
-3.2312771766
 30
0.0
 11
93.9207732176
 21
-5.1463520615
 31
0.0
  0
LINE
  5
2E0
330
1F
100
AcDbEntity
  8
0
  6
Continuous
 62
     7
370
    15
100
AcDbLine
 10
48.9659517502
 20
36.5313576074
 30
0.0
 11
53.9659469818
 21
33.6446078034
 31
0.0
  0
LINE
  5
2E1
330
1F
100
AcDbEntity
  8
0
  6
Continuous
 62
     7
370
    15
100
AcDbLine
 10
48.9659517502
 20
42.3048609407
 30
0.0
 11
48.9659517502
 21
36.5313576074
 31
0.0
  0
LINE
  5
2E2
330
1F
100
AcDbEntity
  8
0
  6
Continuous
 62
     7
370
    15
100
AcDbLine
 10
53.9659469818
 20
45.19161447
 30
0.0
 11
48.9659517502
 21
42.3048609407
 31
0.0
  0
LINE
  5
2E3
330
1F
100
AcDbEntity
  8
0
  6
Continuous
 62
     7
370
    15
100
AcDbLine
 10
58.9659720158
 20
42.3048609407
 30
0.0
 11
53.9659469818
 21
45.19161447
 31
0.0
  0
LINE
  5
2E4
330
1F
100
AcDbEntity
  8
0
  6
Continuous
 62
     7
370
    15
100
AcDbLine
 10
58.9659720158
 20
36.5313576074
 30
0.0
 11
58.9659720158
 21
42.3048609407
 31
0.0
  0
LINE
  5
2E5
330
1F
100
AcDbEntity
  8
0
  6
Continuous
 62
     7
370
    15
100
AcDbLine
 10
53.9659469818
 20
33.6446078034
 30
0.0
 11
58.9659720158
 21
36.5313576074
 31
0.0
  0
LINE
  5
2E6
330
1F
100
AcDbEntity
  8
0
  6
Continuous
 62
     7
370
    15
100
AcDbLine
 10
87.8559559082
 20
36.5313576074
 30
0.0
 11
92.855966041
 21
33.6446078034
 31
0.0
  0
LINE
  5
2E7
330
1F
100
AcDbEntity
  8
0
  6
Continuous
 62
     7
370
    15
100
AcDbLine
 10
87.8559559082
 20
42.3048609407
 30
0.0
 11
87.8559559082
 21
36.5313576074
 31
0.0
  0
LINE
  5
2E8
330
1F
100
AcDbEntity
  8
0
  6
Continuous
 62
     7
370
    15
100
AcDbLine
 10
92.855966041
 20
45.19161447
 30
0.0
 11
87.8559559082
 21
42.3048609407
 31
0.0
  0
LINE
  5
2E9
330
1F
100
AcDbEntity
  8
0
  6
Continuous
 62
     7
370
    15
100
AcDbLine
 10
97.8559612726
 20
42.3048609407
 30
0.0
 11
92.855966041
 21
45.19161447
 31
0.0
  0
LINE
  5
2EA
330
1F
100
AcDbEntity
  8
0
  6
Continuous
 62
     7
370
    15
100
AcDbLine
 10
97.8559612726
 20
36.5313576074
 30
0.0
 11
97.8559612726
 21
42.3048609407
 31
0.0
  0
LINE
  5
2EB
330
1F
100
AcDbEntity
  8
0
  6
Continuous
 62
     7
370
    15
100
AcDbLine
 10
92.855966041
 20
33.6446078034
 30
0.0
 11
97.8559612726
 21
36.5313576074
 31
0.0
  0
LINE
  5
2EC
330
1F
100
AcDbEntity
  8
0
  6
Continuous
 62
     7
370
    15
100
AcDbLine
 10
108.6059569811
 20
23.1481069238
 30
0.0
 11
108.6059569811
 21
45.6481115432
 31
0.0
  0
ARC
  5
2ED
330
1F
100
AcDbEntity
  8
0
  6
Continuous
 62
     7
370
    15
100
AcDbCircle
 10
73.6059596562
 20
23.1481106193
 30
0.0
 40
35.00000000000002
100
AcDbArc
 50
270.0
 51
0.0
  0
LINE
  5
2EE
330
1F
100
AcDbEntity
  8
0
  6
Continuous
 62
     7
370
    15
100
AcDbLine
 10
47.9159563278
 20
-11.8518894999
 30
0.0
 11
73.6059605574
 21
-11.8518894999
 31
0.0
  0
LINE
  5
2EF
330
1F
100
AcDbEntity
  8
0
  6
Continuous
 62
     7
370
    15
100
AcDbLine
 10
108.6059569811
 20
45.6481115432
 30
0.0
 11
47.9159563278
 21
45.6481115432
 31
0.0
  0
LINE
  5
2F0
330
1F
100
AcDbEntity
  8
0
  6
Continuous
 62
     7
370
    15
100
AcDbLine
 10
47.9159563278
 20
45.6481115432
 30
0.0
 11
47.9159563278
 21
-11.8518894999
 31
0.0
  0
LINE
  5
2F1
330
1F
100
AcDbEntity
  8
0
  6
Continuous
 62
     7
370
    15
100
AcDbLine
 10
35.9259455895
 20
112.8448849083
 30
0.0
 11
114.9259566759
 21
112.8448849083
 31
0.0
  0
LINE
  5
2F2
330
1F
100
AcDbEntity
  8
0
  6
Continuous
 62
     7
370
    15
100
AcDbLine
 10
35.9259455895
 20
64.7714739205
 30
0.0
 11
35.9259455895
 21
112.8448849083
 31
0.0
  0
LINE
  5
2F3
330
1F
100
AcDbEntity
  8
0
  6
Continuous
 62
     7
370
    15
100
AcDbLine
 10
114.9259566759
 20
64.7714739205
 30
0.0
 11
114.9259566759
 21
112.8448849083
 31
0.0
  0
LINE
  5
2F4
330
1F
100
AcDbEntity
  8
0
  6
Continuous
 62
     7
370
    15
100
AcDbLine
 10
35.9259455895
 20
112.8448849083
 30
0.0
 11
35.9259455895
 21
146.6481113346
 31
0.0
  0
LINE
  5
2F5
330
1F
100
AcDbEntity
  8
0
  6
Continuous
 62
     7
370
    15
100
AcDbLine
 10
114.9259566759
 20
112.8448849083
 30
0.0
 11
114.9259566759
 21
146.6481113346
 31
0.0
  0
LINE
  5
2F6
330
1F
100
AcDbEntity
  8
0
  6
Continuous
 62
     7
370
    15
100
AcDbLine
 10
35.9259455895
 20
156.6481092484
 30
0.0
 11
114.9259566759
 21
156.6481092484
 31
0.0
  0
LINE
  5
2F7
330
1F
100
AcDbEntity
  8
0
  6
Continuous
 62
     7
370
    15
100
AcDbLine
 10
35.9259455895
 20
146.6481113346
 30
0.0
 11
35.9259455895
 21
156.6481092484
 31
0.0
  0
LINE
  5
2F8
330
1F
100
AcDbEntity
  8
0
  6
Continuous
 62
     7
370
    15
100
AcDbLine
 10
114.9259566759
 20
146.6481113346
 30
0.0
 11
114.9259566759
 21
156.6481092484
 31
0.0
  0
LINE
  5
2F9
330
1F
100
AcDbEntity
  8
0
  6
Continuous
 62
     7
370
    15
100
AcDbLine
 10
35.9259455895
 20
60.9487728687
 30
0.0
 11
35.9259455895
 21
64.7714739205
 31
0.0
  0
LINE
  5
2FA
330
1F
100
AcDbEntity
  8
0
  6
Continuous
 62
     7
370
    15
100
AcDbLine
 10
114.9259566759
 20
60.9487728687
 30
0.0
 11
114.9259566759
 21
64.7714739205
 31
0.0
  0
LINE
  5
2FB
330
1F
100
AcDbEntity
  8
0
  6
Continuous
 62
     7
370
    15
100
AcDbLine
 10
108.6059569811
 20
23.1481069238
 30
0.0
 11
114.9259566759
 21
23.1481069238
 31
0.0
  0
LINE
  5
2FC
330
1F
100
AcDbEntity
  8
0
  6
Continuous
 62
     7
370
    15
100
AcDbLine
 10
35.9259455895
 20
-3.8518881886
 30
0.0
 11
35.9259455895
 21
60.9487728687
 31
0.0
  0
LINE
  5
2FD
330
1F
100
AcDbEntity
  8
0
  6
Continuous
 62
     7
370
    15
100
AcDbLine
 10
114.9259566759
 20
23.1481069238
 30
0.0
 11
114.9259566759
 21
60.9487728687
 31
0.0
  0
LINE
  5
2FE
330
1F
100
AcDbEntity
  8
0
  6
Continuous
 62
     7
370
    15
100
AcDbLine
 10
108.6059569811
 20
15.4600837739
 30
0.0
 11
108.6059569811
 21
23.1481069238
 31
0.0
  0
ARC
  5
2FF
330
1F
100
AcDbEntity
  8
0
  6
Continuous
 62
     7
370
    15
100
AcDbCircle
 10
74.4259596562
 20
20.1481106193
 30
0.0
 40
34.50000000000001
100
AcDbArc
 50
315.9207901521
 51
352.1902104574
  0
LINE
  5
300
330
1F
100
AcDbEntity
  8
0
  6
Continuous
 62
     7
370
    15
100
AcDbLine
 10
80.2783131098
 20
-13.8518861024
 30
0.0
 11
35.9259455895
 21
-13.8518861024
 31
0.0
  0
SPLINE
  5
301
330
1F
100
AcDbEntity
  8
0
  6
Continuous
 62
     7
370
    15
100
AcDbSpline
210
0.0
220
0.0
230
1.0
 70
     8
 71
     3
 72
    34
 73
    30
 74
     0
 42
0.00000001
 43
0.00000001
 12
1.0
 22
0.0
 32
0.0
 13
1.0
 23
0.0
 33
0.0
 40
0.0
 40
0.0
 40
0.0
 40
0.0
 40
0.1250000000000023
 40
0.1250000000000023
 40
0.2500000000000046
 40
0.2500000000000046
 40
0.3125000000000044
 40
0.3125000000000044
 40
0.3750000000000041
 40
0.3750000000000041
 40
0.5000000000000044
 40
0.5000000000000044
 40
0.6250000000000048
 40
0.6250000000000048
 40
0.6875000000000047
 40
0.6875000000000047
 40
0.7500000000000046
 40
0.7500000000000046
 40
0.8125000000000046
 40
0.8125000000000046
 40
0.8750000000000044
 40
0.8750000000000044
 40
0.9062500000000033
 40
0.9062500000000033
 40
0.9375000000000023
 40
0.9375000000000023
 40
0.9687500000000012
 40
0.9687500000000012
 40
1.0
 40
1.0
 40
1.0
 40
1.0
 10
99.21002711895561
 20
-3.851889380664428
 30
0.0
 10
98.48127454213346
 20
-4.6044499234828
 30
0.0
 10
97.72998543785653
 20
-5.311987846393376
 30
0.0
 10
96.18221683556871
 20
-6.646655755126393
 30
0.0
 10
95.38575173248762
 20
-7.273693495883887
 30
0.0
 10
94.15683968925528
 20
-8.15731164078866
 30
0.0
 10
93.74213898507399
 20
-8.441769304076265
 30
0.0
 10
92.91225961641175
 20
-8.985250526976685
 30
0.0
 10
92.49572426953722
 20
-9.245264966366463
 30
0.0
 10
91.24108762818841
 20
-9.992379710175857
 30
0.0
 10
90.39789055876984
 20
-10.44668528701881
 30
0.0
 10
88.69808757431835
 20
-11.27561414392124
 30
0.0
 10
87.84138704589745
 20
-11.65019733465239
 30
0.0
 10
86.54865781088402
 20
-12.15520514926796
 30
0.0
 10
86.11608142809376
 20
-12.31414989175969
 30
0.0
 10
85.25533042797495
 20
-12.61134653763517
 30
0.0
 10
84.8264778391288
 20
-12.74987072785433
 30
0.0
 10
83.9746370432417
 20
-13.00714108159022
 30
0.0
 10
83.55135561400293
 20
-13.12592492687496
 30
0.0
 10
82.72058142022101
 20
-13.3426872617101
 30
0.0
 10
82.31094295916682
 20
-13.4411205520454
 30
0.0
 10
81.72635033796058
 20
-13.57123322046194
 30
0.0
 10
81.53669470328548
 20
-13.61165323919035
 30
0.0
 10
81.17432140794872
 20
-13.68595242903099
 30
0.0
 10
81.001336793286
 20
-13.71987058819578
 30
0.0
 10
80.68609078169226
 20
-13.77955499237832
 30
0.0
 10
80.54653322928202
 20
-13.8047918926068
 30
0.0
 10
80.33989412118059
 20
-13.84139348109077
 30
0.0
 10
80.27830961153148
 20
-13.85188938066441
 30
0.0
 10
80.2783096115314
 20
-13.85188938066447
 30
0.0
  0
LINE
  5
302
330
1F
100
AcDbEntity
  8
0
  6
Continuous
 62
     7
370
    15
100
AcDbLine
 10
35.9259455895
 20
-13.8518861024
 30
0.0
 11
35.9259455895
 21
-3.8518881886
 31
0.0
  0
LINE
  5
303
330
1F
100
AcDbEntity
  8
0
  6
Continuous
 62
     7
370
    15
100
AcDbLine
 10
132.4259548878
 20
153.1964787753
 30
0.0
 11
132.2512387728
 21
153.1964787753
 31
0.0
  0
LINE
  5
304
330
1F
100
AcDbEntity
  8
0
  6
Continuous
 62
     7
370
    15
100
AcDbLine
 10
132.2512387728
 20
29.0997424634
 30
0.0
 11
132.4259548878
 21
29.0997424634
 31
0.0
  0
LINE
  5
305
330
1F
100
AcDbEntity
  8
0
  6
Continuous
 62
     7
370
    15
100
AcDbLine
 10
132.4259548878
 20
153.1964787753
 30
0.0
 11
132.4259548878
 21
29.0997424634
 31
0.0
  0
LINE
  5
306
330
1F
100
AcDbEntity
  8
0
  6
Continuous
 62
     7
370
    15
100
AcDbLine
 10
541.9259577488
 20
91.1481106193
 30
0.0
 11
541.9259577488
 21
28.6481106193
 31
0.0
  0
LINE
  5
307
330
1F
100
AcDbEntity
  8
0
  6
Continuous
 62
     7
370
    15
100
AcDbLine
 10
541.9259577488
 20
153.6481106193
 30
0.0
 11
541.9259577488
 21
91.1481106193
 31
0.0
  0
LINE
  5
308
330
1F
100
AcDbEntity
  8
0
  6
Continuous
 62
     7
370
    15
100
AcDbLine
 10
497.6006805395
 20
29.0997424634
 30
0.0
 11
497.4259644245
 21
29.0997424634
 31
0.0
  0
LINE
  5
309
330
1F
100
AcDbEntity
  8
0
  6
Continuous
 62
     7
370
    15
100
AcDbLine
 10
497.4259644245
 20
153.1964787753
 30
0.0
 11
497.4259644245
 21
29.0997424634
 31
0.0
  0
LINE
  5
30A
330
1F
100
AcDbEntity
  8
0
  6
Continuous
 62
     7
370
    15
100
AcDbLine
 10
497.4259644245
 20
153.1964787753
 30
0.0
 11
497.6006805395
 21
153.1964787753
 31
0.0
  0
LINE
  5
30B
330
1F
100
AcDbEntity
  8
0
  6
Continuous
 62
     7
370
    15
100
AcDbLine
 10
64.975953052
 20
183.1481107981
 30
0.0
 11
64.975953052
 21
156.6481092484
 31
0.0
  0
LINE
  5
30C
330
1F
100
AcDbEntity
  8
0
  6
Continuous
 62
     7
370
    15
100
AcDbLine
 10
74.7459589934
 20
183.1481107981
 30
0.0
 11
64.975953052
 21
183.1481107981
 31
0.0
  0
LINE
  5
30D
330
1F
100
AcDbEntity
  8
0
  6
Continuous
 62
     7
370
    15
100
AcDbLine
 10
74.7459589934
 20
183.1481107981
 30
0.0
 11
74.7459589934
 21
156.6481092484
 31
0.0
  0
LINE
  5
30E
330
1F
100
AcDbEntity
  8
0
  6
Continuous
 62
     7
370
    15
100
AcDbLine
 10
84.5159649348
 20
183.1481107981
 30
0.0
 11
74.7459589934
 21
183.1481107981
 31
0.0
  0
LINE
  5
30F
330
1F
100
AcDbEntity
  8
0
  6
Continuous
 62
     7
370
    15
100
AcDbLine
 10
84.5159649348
 20
183.1481107981
 30
0.0
 11
84.5159649348
 21
156.6481092484
 31
0.0
  0
LINE
  5
310
330
1F
100
AcDbEntity
  8
0
  6
Continuous
 62
     7
370
    15
100
AcDbLine
 10
132.4259548878
 20
83.648110787
 30
0.0
 11
216.2649243569
 21
83.648110787
 31
0.0
  0
LINE
  5
311
330
1F
100
AcDbEntity
  8
0
  6
Continuous
 62
     7
370
    15
100
AcDbLine
 10
132.4259548878
 20
98.6481104517
 30
0.0
 11
216.2649243569
 21
98.6481104517
 31
0.0
  0
LINE
  5
312
330
1F
100
AcDbEntity
  8
0
  6
Continuous
 62
     7
370
    15
100
AcDbLine
 10
497.4259644245
 20
98.6481104517
 30
0.0
 11
413.5869949555
 21
98.6481104517
 31
0.0
  0
LINE
  5
313
330
1F
100
AcDbEntity
  8
0
  6
Continuous
 62
     7
370
    15
100
AcDbLine
 10
497.4259644245
 20
83.648110787
 30
0.0
 11
413.5869949555
 21
83.648110787
 31
0.0
  0
LINE
  5
314
330
1F
100
AcDbEntity
  8
0
  6
Continuous
 62
     7
370
    15
100
AcDbLine
 10
481.5777003264
 20
98.6481104517
 30
0.0
 11
481.5777003264
 21
120.1954861642
 31
0.0
  0
SPLINE
  5
315
330
1F
100
AcDbEntity
  8
0
  6
Continuous
 62
     7
370
    15
100
AcDbSpline
210
0.0
220
0.0
230
1.0
 70
     8
 71
     3
 72
     8
 73
     4
 74
     0
 42
0.00000001
 43
0.00000001
 12
1.0
 22
0.0
 32
0.0
 13
1.0
 23
0.0
 33
0.0
 40
0.0
 40
0.0
 40
0.0
 40
0.0
 40
1.0
 40
1.0
 40
1.0
 40
1.0
 10
481.5776947669123
 20
120.1954857158902
 30
0.0
 10
486.8498190555928
 20
123.3391732613082
 30
0.0
 10
492.13521248897
 20
126.4607477971458
 30
0.0
 10
497.4259596561674
 20
129.57300489375
 30
0.0
  0
SPLINE
  5
316
330
1F
100
AcDbEntity
  8
0
  6
Continuous
 62
     7
370
    15
100
AcDbSpline
210
0.0
220
0.0
230
1.0
 70
     8
 71
     3
 72
    10
 73
     6
 74
     0
 42
0.00000001
 43
0.00000001
 12
1.0
 22
0.0
 32
0.0
 13
1.0
 23
0.0
 33
0.0
 40
0.0
 40
0.0
 40
0.0
 40
0.0
 40
0.5
 40
0.5
 40
1.0
 40
1.0
 40
1.0
 40
1.0
 10
497.4259596561674
 20
117.6349971164893
 30
0.0
 10
497.2571130800862
 20
117.9616652010808
 30
0.0
 10
497.1662420628795
 20
118.3231097628883
 30
0.0
 10
497.1660621401107
 20
119.1262536500869
 30
0.0
 10
497.257096605276
 20
119.5455434841603
 30
0.0
 10
497.4259596561674
 20
119.9780836281128
 30
0.0
  0
SPLINE
  5
317
330
1F
100
AcDbEntity
  8
0
  6
Continuous
 62
     7
370
    15
100
AcDbSpline
210
0.0
220
0.0
230
1.0
 70
     8
 71
     3
 72
     8
 73
     4
 74
     0
 42
0.00000001
 43
0.00000001
 12
1.0
 22
0.0
 32
0.0
 13
1.0
 23
0.0
 33
0.0
 40
0.0
 40
0.0
 40
0.0
 40
0.0
 40
1.0
 40
1.0
 40
1.0
 40
1.0
 10
132.4259596561675
 20
129.57300489375
 30
0.0
 10
137.7168464304547
 20
126.4606656739329
 30
0.0
 10
143.0023770103942
 20
123.3390082373138
 30
0.0
 10
148.2742245454226
 20
120.1954857158902
 30
0.0
  0
LINE
  5
318
330
1F
100
AcDbEntity
  8
0
  6
Continuous
 62
     7
370
    15
100
AcDbLine
 10
148.274218986
 20
120.1954861642
 30
0.0
 11
148.274218986
 21
98.6481104517
 31
0.0
  0
SPLINE
  5
319
330
1F
100
AcDbEntity
  8
0
  6
Continuous
 62
     7
370
    15
100
AcDbSpline
210
0.0
220
0.0
230
1.0
 70
     8
 71
     3
 72
    10
 73
     6
 74
     0
 42
0.00000001
 43
0.00000001
 12
1.0
 22
0.0
 32
0.0
 13
1.0
 23
0.0
 33
0.0
 40
0.0
 40
0.0
 40
0.0
 40
0.0
 40
0.5
 40
0.5
 40
1.0
 40
1.0
 40
1.0
 40
1.0
 10
132.4259596561675
 20
117.6349971164893
 30
0.0
 10
132.5948062322487
 20
117.9616652010808
 30
0.0
 10
132.6856772494555
 20
118.3231097628883
 30
0.0
 10
132.6858571722242
 20
119.1262536500869
 30
0.0
 10
132.5948227070589
 20
119.5455434841603
 30
0.0
 10
132.4259596561675
 20
119.9780836281128
 30
0.0
  0
LINE
  5
31A
330
1F
100
AcDbEntity
  8
0
  6
Continuous
 62
     7
370
    15
100
AcDbLine
 10
148.274218986
 20
83.648110787
 30
0.0
 11
148.274218986
 21
62.1007350744
 31
0.0
  0
SPLINE
  5
31B
330
1F
100
AcDbEntity
  8
0
  6
Continuous
 62
     7
370
    15
100
AcDbSpline
210
0.0
220
0.0
230
1.0
 70
     8
 71
     3
 72
     8
 73
     4
 74
     0
 42
0.00000001
 43
0.00000001
 12
1.0
 22
0.0
 32
0.0
 13
1.0
 23
0.0
 33
0.0
 40
0.0
 40
0.0
 40
0.0
 40
0.0
 40
1.0
 40
1.0
 40
1.0
 40
1.0
 10
148.2742245454226
 20
62.10073552277896
 30
0.0
 10
143.0021533164806
 20
58.95707961607621
 30
0.0
 10
137.7167533159304
 20
55.83550079055593
 30
0.0
 10
132.4259596561675
 20
52.72321634491921
 30
0.0
  0
SPLINE
  5
31C
330
1F
100
AcDbEntity
  8
0
  6
Continuous
 62
     7
370
    15
100
AcDbSpline
210
0.0
220
0.0
230
1.0
 70
     8
 71
     3
 72
    10
 73
     6
 74
     0
 42
0.00000001
 43
0.00000001
 12
1.0
 22
0.0
 32
0.0
 13
1.0
 23
0.0
 33
0.0
 40
0.0
 40
0.0
 40
0.0
 40
0.0
 40
0.5
 40
0.5
 40
1.0
 40
1.0
 40
1.0
 40
1.0
 10
132.4259596561675
 20
62.31813761055693
 30
0.0
 10
132.5948062322487
 20
62.75063555453285
 30
0.0
 10
132.6856772494555
 20
63.16872461877365
 30
0.0
 10
132.6858571722242
 20
63.97198084610365
 30
0.0
 10
132.5948227070589
 20
64.33452416371368
 30
0.0
 10
132.4259596561675
 20
64.66122412218046
 30
0.0
  0
SPLINE
  5
31D
330
1F
100
AcDbEntity
  8
0
  6
Continuous
 62
     7
370
    15
100
AcDbSpline
210
0.0
220
0.0
230
1.0
 70
     8
 71
     3
 72
     8
 73
     4
 74
     0
 42
0.00000001
 43
0.00000001
 12
1.0
 22
0.0
 32
0.0
 13
1.0
 23
0.0
 33
0.0
 40
0.0
 40
0.0
 40
0.0
 40
0.0
 40
1.0
 40
1.0
 40
1.0
 40
1.0
 10
497.4259596561674
 20
52.72321634491921
 30
0.0
 10
492.1351997455712
 20
55.83548093776765
 30
0.0
 10
486.8496860108078
 20
58.9571273099432
 30
0.0
 10
481.5776947669123
 20
62.10073552277895
 30
0.0
  0
LINE
  5
31E
330
1F
100
AcDbEntity
  8
0
  6
Continuous
 62
     7
370
    15
100
AcDbLine
 10
481.5777003264
 20
62.1007350744
 30
0.0
 11
481.5777003264
 21
83.648110787
 31
0.0
  0
SPLINE
  5
31F
330
1F
100
AcDbEntity
  8
0
  6
Continuous
 62
     7
370
    15
100
AcDbSpline
210
0.0
220
0.0
230
1.0
 70
     8
 71
     3
 72
    10
 73
     6
 74
     0
 42
0.00000001
 43
0.00000001
 12
1.0
 22
0.0
 32
0.0
 13
1.0
 23
0.0
 33
0.0
 40
0.0
 40
0.0
 40
0.0
 40
0.0
 40
0.5
 40
0.5
 40
1.0
 40
1.0
 40
1.0
 40
1.0
 10
497.4259596561674
 20
62.31813761055693
 30
0.0
 10
497.2571130800862
 20
62.75063555453285
 30
0.0
 10
497.1662420628795
 20
63.16872461877365
 30
0.0
 10
497.1660621401107
 20
63.97198084610365
 30
0.0
 10
497.257096605276
 20
64.33452416371368
 30
0.0
 10
497.4259596561674
 20
64.66122412218046
 30
0.0
  0
LINE
  5
320
330
1F
100
AcDbEntity
  8
0
  6
Continuous
 62
     7
370
    15
100
AcDbLine
 10
34.9259584641
 20
54.6481111558
 30
0.0
 11
34.9259584641
 21
127.6481100829
 31
0.0
  0
LINE
  5
321
330
1F
100
AcDbEntity
  8
0
  6
Continuous
 62
     7
370
    15
100
AcDbLine
 10
423.7101509666
 20
120.1954861642
 30
0.0
 11
481.5777003264
 21
120.1954861642
 31
0.0
  0
LINE
  5
322
330
1F
100
AcDbEntity
  8
0
  6
Continuous
 62
     7
370
    15
100
AcDbLine
 10
148.274218986
 20
120.1954861642
 30
0.0
 11
206.1417683458
 21
120.1954861642
 31
0.0
  0
LINE
  5
323
330
1F
100
AcDbEntity
  8
0
  6
Continuous
 62
     7
370
    15
100
AcDbLine
 10
206.1417683458
 20
62.1007350744
 30
0.0
 11
148.274218986
 21
62.1007350744
 31
0.0
  0
LINE
  5
324
330
1F
100
AcDbEntity
  8
0
  6
Continuous
 62
     7
370
    15
100
AcDbLine
 10
481.5777003264
 20
62.1007350744
 30
0.0
 11
423.7101509666
 21
62.1007350744
 31
0.0
  0
LINE
  5
325
330
1F
100
AcDbEntity
  8
0
  6
Continuous
 62
     7
370
    15
100
AcDbLine
 10
35.9259455895
 20
156.6481092484
 30
0.0
 11
35.9259455895
 21
160.1481088908
 31
0.0
  0
LINE
  5
326
330
1F
100
AcDbEntity
  8
0
  6
Continuous
 62
     7
370
    15
100
AcDbLine
 10
114.9259566759
 20
156.6481092484
 30
0.0
 11
114.9259566759
 21
160.1481088908
 31
0.0
  0
LINE
  5
327
330
1F
100
AcDbEntity
  8
0
  6
Continuous
 62
     7
370
    15
100
AcDbLine
 10
484.4657837843
 20
187.147485605
 30
0.0
 11
497.6006805395
 21
153.1964787753
 31
0.0
  0
CIRCLE
  5
328
330
1F
100
AcDbEntity
  8
0
  6
Continuous
 62
     7
370
    15
100
AcDbCircle
 10
464.9259596562
 20
149.1481106193
 30
0.0
 40
18.15616497644439
  0
LINE
  5
329
330
1F
100
AcDbEntity
  8
0
  6
Continuous
 62
     7
370
    15
100
AcDbLine
 10
145.386135528
 20
187.147485605
 30
0.0
 11
132.2512387728
 21
153.1964787753
 31
0.0
  0
CIRCLE
  5
32A
330
1F
100
AcDbEntity
  8
0
  6
Continuous
 62
     7
370
    15
100
AcDbCircle
 10
164.9259596562
 20
149.1481106193
 30
0.0
 40
18.15616497644439
  0
CIRCLE
  5
32B
330
1F
100
AcDbEntity
  8
0
  6
Continuous
 62
     7
370
    15
100
AcDbCircle
 10
464.9259596562
 20
149.1481106193
 30
0.0
 40
17.5
  0
CIRCLE
  5
32C
330
1F
100
AcDbEntity
  8
0
  6
Continuous
 62
     7
370
    15
100
AcDbCircle
 10
164.9259596562
 20
149.1481106193
 30
0.0
 40
17.5
  0
LINE
  5
32D
330
1F
100
AcDbEntity
  8
0
  6
Continuous
 62
     7
370
    15
100
AcDbLine
 10
145.386135528
 20
-4.8512643664
 30
0.0
 11
132.2512387728
 21
29.0997424634
 31
0.0
  0
CIRCLE
  5
32E
330
1F
100
AcDbEntity
  8
0
  6
Continuous
 62
     7
370
    15
100
AcDbCircle
 10
164.9259596562
 20
33.1481106193
 30
0.0
 40
18.15616497644439
  0
LINE
  5
32F
330
1F
100
AcDbEntity
  8
0
  6
Continuous
 62
     7
370
    15
100
AcDbLine
 10
484.4657837843
 20
-4.8512643664
 30
0.0
 11
497.6006805395
 21
29.0997424634
 31
0.0
  0
CIRCLE
  5
330
330
1F
100
AcDbEntity
  8
0
  6
Continuous
 62
     7
370
    15
100
AcDbCircle
 10
464.9259596562
 20
33.1481106193
 30
0.0
 40
18.15616497644439
  0
CIRCLE
  5
331
330
1F
100
AcDbEntity
  8
0
  6
Continuous
 62
     7
370
    15
100
AcDbCircle
 10
464.9259596562
 20
33.1481106193
 30
0.0
 40
17.50000000000001
  0
CIRCLE
  5
332
330
1F
100
AcDbEntity
  8
0
  6
Continuous
 62
     7
370
    15
100
AcDbCircle
 10
164.9259596562
 20
33.1481106193
 30
0.0
 40
17.50000000000001
  0
LINE
  5
333
330
1F
100
AcDbEntity
  8
0
  6
Continuous
 62
     8
370
     0
100
AcDbLine
 10
335.4116625582
 20
97.8604737209
 30
0.0
 11
337.1794301515
 21
97.8604737209
 31
0.0
  0
LINE
  5
334
330
1F
100
AcDbEntity
  8
0
  6
Continuous
 62
     8
370
     0
100
AcDbLine
 10
335.4116625582
 20
115.5561102094
 30
0.0
 11
337.1794301515
 21
115.5561102094
 31
0.0
  0
LINE
  5
335
330
1F
100
AcDbEntity
  8
0
  6
Continuous
 62
     8
370
     0
100
AcDbLine
 10
335.5875428265
 20
97.6387425797
 30
0.0
 11
337.3553085571
 21
97.6387425797
 31
0.0
  0
LINE
  5
336
330
1F
100
AcDbEntity
  8
0
  6
Continuous
 62
     8
370
     0
100
AcDbLine
 10
335.4116625582
 20
68.0361097218
 30
0.0
 11
337.1794301515
 21
68.0361097218
 31
0.0
  0
LINE
  5
337
330
1F
100
AcDbEntity
  8
0
  6
Continuous
 62
     8
370
     0
100
AcDbLine
 10
335.4116625582
 20
84.4357475178
 30
0.0
 11
337.1794301515
 21
84.4357475178
 31
0.0
  0
LINE
  5
338
330
1F
100
AcDbEntity
  8
0
  6
Continuous
 62
     8
370
     0
100
AcDbLine
 10
335.5875428265
 20
84.657478659
 30
0.0
 11
337.3553085571
 21
84.657478659
 31
0.0
  0
LINE
  5
339
330
1F
100
AcDbEntity
  8
0
  6
Continuous
 62
     8
370
     0
100
AcDbLine
 10
352.3603550588
 20
91.3698417023
 30
0.0
 11
354.1281207895
 21
91.3698417023
 31
0.0
  0
LINE
  5
33A
330
1F
100
AcDbEntity
  8
0
  6
Continuous
 62
     8
370
     0
100
AcDbLine
 10
352.3603550588
 20
90.9263795363
 30
0.0
 11
354.1281207895
 21
90.9263795363
 31
0.0
  0
LINE
  5
33B
330
1F
100
AcDbEntity
  8
0
  6
Continuous
 62
     8
370
     0
100
AcDbLine
 10
342.9826706146
 20
102.2512210073
 30
0.0
 11
344.7504363453
 21
102.2512210073
 31
0.0
  0
LINE
  5
33C
330
1F
100
AcDbEntity
  8
0
  6
Continuous
 62
     8
370
     0
100
AcDbLine
 10
342.9826706146
 20
106.9271550985
 30
0.0
 11
344.7504363453
 21
106.9271550985
 31
0.0
  0
LINE
  5
33D
330
1F
100
AcDbEntity
  8
0
  6
Continuous
 62
     8
370
     0
100
AcDbLine
 10
343.1481834
 20
102.029489866
 30
0.0
 11
344.9159491306
 21
102.029489866
 31
0.0
  0
LINE
  5
33E
330
1F
100
AcDbEntity
  8
0
  6
Continuous
 62
     8
370
     0
100
AcDbLine
 10
342.9826706146
 20
110.9922496141
 30
0.0
 11
344.7504363453
 21
110.9922496141
 31
0.0
  0
LINE
  5
33F
330
1F
100
AcDbEntity
  8
0
  6
Continuous
 62
     8
370
     0
100
AcDbLine
 10
342.9826706146
 20
115.5561102094
 30
0.0
 11
344.7504363453
 21
115.5561102094
 31
0.0
  0
LINE
  5
340
330
1F
100
AcDbEntity
  8
0
  6
Continuous
 62
     8
370
     0
100
AcDbLine
 10
342.9826706146
 20
68.0361097218
 30
0.0
 11
344.7504363453
 21
68.0361097218
 31
0.0
  0
LINE
  5
341
330
1F
100
AcDbEntity
  8
0
  6
Continuous
 62
     8
370
     0
100
AcDbLine
 10
342.9826706146
 20
80.0450002314
 30
0.0
 11
344.7504363453
 21
80.0450002314
 31
0.0
  0
LINE
  5
342
330
1F
100
AcDbEntity
  8
0
  6
Continuous
 62
     8
370
     0
100
AcDbLine
 10
343.1481834
 20
80.2667313726
 30
0.0
 11
344.9159491306
 21
80.2667313726
 31
0.0
  0
LINE
  5
343
330
1F
100
AcDbEntity
  8
0
  6
Continuous
 62
     8
370
     0
100
AcDbLine
 10
359.8289548849
 20
95.4067190649
 30
0.0
 11
361.5967243408
 21
95.4067190649
 31
0.0
  0
LINE
  5
344
330
1F
100
AcDbEntity
  8
0
  6
Continuous
 62
     8
370
     0
100
AcDbLine
 10
359.8289548849
 20
86.8895021738
 30
0.0
 11
361.5967243408
 21
86.8895021738
 31
0.0
  0
LINE
  5
345
330
1F
100
AcDbEntity
  8
0
  6
Continuous
 62
     8
370
     0
100
AcDbLine
 10
350.0835023319
 20
105.2656663121
 30
0.0
 11
350.9890645241
 21
105.2656663121
 31
0.0
  0
LINE
  5
346
330
1F
100
AcDbEntity
  8
0
  6
Continuous
 62
     8
370
     0
100
AcDbLine
 10
350.167030791
 20
71.0760248364
 30
0.0
 11
350.3596394753
 21
71.0760248364
 31
0.0
  0
LINE
  5
347
330
1F
100
AcDbEntity
  8
0
  6
Continuous
 62
     8
370
     0
100
AcDbLine
 10
359.8289548849
 20
66.5175640495
 30
0.0
 11
361.5967243408
 21
66.5175640495
 31
0.0
  0
LINE
  5
348
330
1F
100
AcDbEntity
  8
0
  6
Continuous
 62
     8
370
     0
100
AcDbLine
 10
353.1779594218
 20
78.2414223538
 30
0.0
 11
354.0839164948
 21
78.2414223538
 31
0.0
  0
LINE
  5
349
330
1F
100
AcDbEntity
  8
0
  6
Continuous
 62
     8
370
     0
100
AcDbLine
 10
353.1779594218
 20
75.1656448008
 30
0.0
 11
354.0839164948
 21
75.1656448008
 31
0.0
  0
LINE
  5
34A
330
1F
100
AcDbEntity
  8
0
  6
Continuous
 62
     8
370
     0
100
AcDbLine
 10
354.8672593629
 20
109.0006162883
 30
0.0
 11
355.1308012997
 21
109.0006162883
 31
0.0
  0
LINE
  5
34B
330
1F
100
AcDbEntity
  8
0
  6
Continuous
 62
     8
370
     0
100
AcDbLine
 10
359.7927487885
 20
113.0890627862
 30
0.0
 11
361.5605145191
 21
113.0890627862
 31
0.0
  0
LINE
  5
34C
330
1F
100
AcDbEntity
  8
0
  6
Continuous
 62
     8
370
     0
100
AcDbLine
 10
35.9259455895
 20
64.7714739205
 30
0.0
 11
114.9259566759
 21
64.7714739205
 31
0.0
  0
LINE
  5
34D
330
1F
100
AcDbEntity
  8
0
  6
Continuous
 62
     8
370
     0
100
AcDbLine
 10
35.9259455895
 20
146.6481113346
 30
0.0
 11
114.9259566759
 21
146.6481113346
 31
0.0
  0
LINE
  5
34E
330
1F
100
AcDbEntity
  8
0
  6
Continuous
 62
     8
370
     0
100
AcDbLine
 10
35.9259455895
 20
60.9487728687
 30
0.0
 11
114.9259566759
 21
60.9487728687
 31
0.0
  0
LINE
  5
34F
330
1F
100
AcDbEntity
  8
0
  6
Continuous
 62
     8
370
     0
100
AcDbLine
 10
35.9259455895
 20
-3.8518881886
 30
0.0
 11
47.9159563278
 21
-3.8518881886
 31
0.0
  0
LINE
  5
350
330
1F
100
AcDbEntity
  8
0
  6
Continuous
 62
     8
370
     0
100
AcDbLine
 10
95.8770125603
 20
-3.8518881886
 30
0.0
 11
99.2100297903
 21
-3.8518881886
 31
0.0
  0
INSERT
  5
35C
330
1F
100
AcDbEntity
  8
FORMAT
 62
     7
100
AcDbBlockReference
  2
SW_CENTERMARKSYMBOL_2
 10
74.4259596562
 20
20.1481106193
 30
0.0
  0
INSERT
  5
368
330
1F
100
AcDbEntity
  8
FORMAT
 62
     7
100
AcDbBlockReference
  2
SW_CENTERMARKSYMBOL_3
 10
314.9259596562
 20
91.1481106193
 30
0.0
  0
INSERT
  5
374
330
1F
100
AcDbEntity
  8
FORMAT
 62
     7
100
AcDbBlockReference
  2
SW_CENTERMARKSYMBOL_4
 10
464.9259596562
 20
149.1481106193
 30
0.0
  0
INSERT
  5
380
330
1F
100
AcDbEntity
  8
FORMAT
 62
     7
100
AcDbBlockReference
  2
SW_CENTERMARKSYMBOL_5
 10
464.9259596562
 20
33.1481106193
 30
0.0
  0
INSERT
  5
38C
330
1F
100
AcDbEntity
  8
FORMAT
 62
     7
100
AcDbBlockReference
  2
SW_CENTERMARKSYMBOL_6
 10
164.9259596562
 20
149.1481106193
 30
0.0
  0
INSERT
  5
398
330
1F
100
AcDbEntity
  8
FORMAT
 62
     7
100
AcDbBlockReference
  2
SW_CENTERMARKSYMBOL_7
 10
164.9259596562
 20
33.1481106193
 30
0.0
  0
ENDSEC
  0
SECTION
  2
OBJECTS
  0
DICTIONARY
  5
C
330
0
100
AcDbDictionary
281
     1
  3
ACAD_GROUP
350
D
  3
ACAD_LAYOUT
350
1A
  3
ACAD_MLINESTYLE
350
17
  3
ACAD_PLOTSETTINGS
350
19
  3
ACAD_PLOTSTYLENAME
350
E
  0
DICTIONARY
  5
D
102
{ACAD_REACTORS
330
C
102
}
330
C
100
AcDbDictionary
281
     1
  0
DICTIONARY
  5
1A
102
{ACAD_REACTORS
330
C
102
}
330
C
100
AcDbDictionary
281
     1
  3
Layout1
350
1E
  3
Layout2
350
26
  3
Model
350
22
  0
DICTIONARY
  5
17
102
{ACAD_REACTORS
330
C
102
}
330
C
100
AcDbDictionary
281
     1
  3
Standard
350
18
  0
DICTIONARY
  5
19
102
{ACAD_REACTORS
330
C
102
}
330
C
100
AcDbDictionary
281
     1
  0
ACDBDICTIONARYWDFLT
  5
E
102
{ACAD_REACTORS
330
C
102
}
330
C
100
AcDbDictionary
281
     1
  3
Normal
350
F
100
AcDbDictionaryWithDefault
340
F
  0
LAYOUT
  5
1E
102
{ACAD_REACTORS
330
1A
102
}
330
1A
100
AcDbPlotSettings
  1

  2
none_device
  4

  6

 40
0.0
 41
0.0
 42
0.0
 43
0.0
 44
0.0
 45
0.0
 46
0.0
 47
0.0
 48
0.0
 49
0.0
140
0.0
141
0.0
142
1.0
143
1.0
 70
   688
 72
     0
 73
     0
 74
     5
  7

 75
    16
147
1.0
148
0.0
149
0.0
100
AcDbLayout
  1
Layout1
 70
     1
 71
     1
 10
0.0
 20
0.0
 11
420.0
 21
297.0
 12
0.0
 22
0.0
 32
0.0
 14
1.0000000000E+20
 24
1.0000000000E+20
 34
1.0000000000E+20
 15
-1.0000000000E+20
 25
-1.0000000000E+20
 35
-1.0000000000E+20
146
0.0
 13
0.0
 23
0.0
 33
0.0
 16
1.0
 26
0.0
 36
0.0
 17
0.0
 27
1.0
 37
0.0
 76
     0
330
1B
  0
LAYOUT
  5
26
102
{ACAD_REACTORS
330
1A
102
}
330
1A
100
AcDbPlotSettings
  1

  2
none_device
  4

  6

 40
0.0
 41
0.0
 42
0.0
 43
0.0
 44
0.0
 45
0.0
 46
0.0
 47
0.0
 48
0.0
 49
0.0
140
0.0
141
0.0
142
1.0
143
1.0
 70
   688
 72
     0
 73
     0
 74
     5
  7

 75
    16
147
1.0
148
0.0
149
0.0
100
AcDbLayout
  1
Layout2
 70
     1
 71
     2
 10
0.0
 20
0.0
 11
0.0
 21
0.0
 12
0.0
 22
0.0
 32
0.0
 14
0.0
 24
0.0
 34
0.0
 15
0.0
 25
0.0
 35
0.0
146
0.0
 13
0.0
 23
0.0
 33
0.0
 16
1.0
 26
0.0
 36
0.0
 17
0.0
 27
1.0
 37
0.0
 76
     0
330
23
  0
LAYOUT
  5
22
102
{ACAD_REACTORS
330
1A
102
}
330
1A
100
AcDbPlotSettings
  1

  2
none_device
  4

  6

 40
0.0
 41
0.0
 42
0.0
 43
0.0
 44
0.0
 45
0.0
 46
0.0
 47
0.0
 48
0.0
 49
0.0
140
0.0
141
0.0
142
1.0
143
1.0
 70
  1712
 72
     0
 73
     0
 74
     0
  7

 75
     0
147
1.0
148
0.0
149
0.0
100
AcDbLayout
  1
Model
 70
     1
 71
     0
 10
0.0
 20
0.0
 11
841.0
 21
594.0
 12
0.0
 22
0.0
 32
0.0
 14
0.0
 24
0.0
 34
0.0
 15
841.0
 25
594.0
 35
0.0
146
0.0
 13
0.0
 23
0.0
 33
0.0
 16
1.0
 26
0.0
 36
0.0
 17
0.0
 27
1.0
 37
0.0
 76
     0
330
1F
331
29
  0
MLINESTYLE
  5
18
102
{ACAD_REACTORS
330
17
102
}
330
17
100
AcDbMlineStyle
  2
Standard
 70
     0
  3

 62
   256
 51
90.0
 52
90.0
 71
     2
 49
0.5
 62
   256
  6
BYLAYER
 49
-0.5
 62
   256
  6
BYLAYER
  0
ACDBPLACEHOLDER
  5
F
102
{ACAD_REACTORS
330
E
102
}
330
E
  0
ENDSEC
  0
EOF
